2013Zone For Latest Downloads

 
     
 
Legal Downloads » Music » Andy Sheppard Quartet - Surrounded by Sea (2015) {ECM 2432}
Menu
Home Applications
Games Movies
Music TV Shows
Torrents Graphics

Sitemap

RSS
 
Advanced Search
Last News
Site Info
Top Contributors:
  1    supper88 32766
  2    admin 32693
  3    Whisky 10080
  4    Shark_ 8911
  5    creativelivenew 8706
  6    whathesupa 2799
  7    candymypost 840
  8    hvnteam 629
  9    vuong87 3


Articles:
  This Hour: 0
  Today: 0
  This Month: 10
  All Time: 515561


Torrents:
  Today: 0
  Yesterday: 0
  All Time: 156684


Membership:
  Registered Today :0
  This Hour:0
  This Month:0
  Total:14
  Banned:1

{online}
{inform_torrent}
Friend:
We Recomend
Trend
Trend
Ad1

Search In Site

Music : Andy Sheppard Quartet - Surrounded by Sea (2015) {ECM 2432}
 

http://i71.fastpic.ru/big/2015/0627/17/1051f03b420d6a3b584a32b4cd3bf217.jpg
Andy Sheppard Quartet - Surrounded by Sea (2015) {ECM 2432}
EAC rip (secure mode) | FLAC (tracks)+CUE+LOG -> 261 Mb | MP3 @320 -> 127 Mb
Full Artwork @ 300 dpi (jpg) -> 16 Mb | 5% repair rar
© 2015 ECM Records | ECM 2432
Jazz / Modern Creative / Modern Jazz / Saxophone

"Extending the range of his widely-praised Trio Libero project with Michel Benita and Seb Rochford, Andy Sheppard adds Eivind Aarset (who made significant contributions to 2008's Movements In Colour) to the band. With Aarset's ambient drones and electronic textures as a backdrop, Sheppard and co seem to have even more space to explore. The music embraced includes new compositions, open improvisations, an Elvis Costello tune, and the Gaelic traditional ballad "Aoidh, Na Dean Cadal Idir" which appears in three variations, a thematic thread through the album."

http://i69.fastpic.ru/big/2015/0627/9a/43526784a46a8cc09630e8618b002a9a.jpg


ECM INFO
AAJ INFO


Personnel:
Andy Sheppard: tenor and soprano saxophones
Eivind Aarset: guitar
Michel Benita: double bass
Sebastian Rochford: drums

tracklist:
01 - Tipping Point
02 - I Want To Vanish
03 - Aoidh, Na Dean Cadal Idir (Part 1)
04 - Origin Of Species
05 - They Aren't Perfect And Neither Am I
06 - Medication
07 - Aoidh, Na Dean Cadal Idir (Part 2)
08 - The Impossibility Of Silence
09 - I See Your Eyes Before Me
10 - A Letter
11 - Aoidh, Na Dean Cadal Idir (Part 3)
12 - Looking For Ornette

Exact Audio Copy V1.0 beta 3 from 29. August 2011

EAC extraction logfile from 18. June 2015, 10:03

Andy Sheppard Quartet / Surrounded by Sea

Used drive : TSSTcorpCDDVDW SH-224BB Adapter: 0 ID: 0

Read mode : Secure
Utilize accurate stream : Yes
Defeat audio cache : Yes
Make use of C2 pointers : No

Read offset correction

: 6
Overread into Lead-In and Lead-Out : No
Fill up missing offset samples with silence : Yes
Delete leading and trailing silent blocks : No
Null samples used in CRC calculations : Yes
Used interface
: Native Win32 interface for Win NT & 2000
Gap handling
: Appended to previous track

Used output format : User Defined Encoder
Selected bitrate : 768 kBit/s
Quality : High
Add ID3 tag : No
Command line compressor : C:\Program Files (x86)\Exact Audio Copy\FLAC\FLAC.EXE
Additional command line options : -8 -V -T "ARTIST=%artist%" -T "TITLE=%title%" -T "ALBUM=%albumtitle%" -T "DATE=%year%" -T "TRACKNUMBER=%tracknr%" -T "TOTALTRACKS=%numtracks%" -T "GENRE=%genre%" -T "ALBUMARTIST=%albumartist%" -T "ALBUM ARTIST=%albumartist%" -T "COMMENT=EAC Secure Mode, Test & Copy, AccurateRip, FLAC -8" %source%

TOC of the extracted CD Track | Start | Length | Start sector | End sector
1 | 0:00.00 | 6:16.44 | 0 | 28243 2 | 6:16.44 | 5:15.60 | 28244 | 51928 3 | 11:32.29 | 4:17.72 | 51929 | 71275 4 | 15:50.26 | 5:06.16 | 71276 | 94241 5 | 20:56.42 | 5:09.15 | 94242 | 117431 6 | 26:05.57 | 5:02.35 | 117432 | 140116 7 | 31:08.17 | 1:14.23 | 140117 | 145689 8 | 32:22.40 | 6:18.22 | 145690 | 174061 9 | 38:40.62 | 3:49.10 | 174062 | 191246
10 | 42:29.72 | 4:19.01 | 191247 | 210672
11 | 46:48.73 | 3:29.54 | 210673 | 226401
12 | 50:18.52 | 3:09.35 | 226402 | 240611

Track 1 Filename C:\01 - Tipping Point.wav Pre-gap length 0:00:02.00 Peak level 85.3 %
Extraction speed 4.8 X
Track quality 100.0 %
Test CRC 6D6E6F65
Copy CRC 6D6E6F65
Accurately ripped (confidence 5) [92D8ACD6] (AR v2)
Copy OK

Track 2 Filename C:\02 - I Want To Vanish.wav Peak level 73.4 %
Extraction speed 5.4 X
Track quality 100.0 %
Test CRC 36465FA3
Copy CRC 36465FA3
Accurately ripped (confidence 6) [DB6F2D22] (AR v2)
Copy OK

Track 3 Filename C:\03 - Aoidh, Na Dean Cadal Idir (Part 1).wav Peak level 75.1 %
Extraction speed 4.6 X
Track quality 99.9 %
Test CRC 78AE8E3B
Copy CRC 78AE8E3B
Accurately ripped (confidence 6) [A7A858EC] (AR v2)
Copy OK

Track 4 Filename C:\04 - Origin Of Species.wav Peak level 72.8 %
Extraction speed 6.2 X
Track quality 100.0 %
Test CRC 18069166
Copy CRC 18069166
Accurately ripped (confidence 6) [FFC620D7] (AR v2)
Copy OK

Track 5 Filename C:\05 - They Aren't Perfect And Neither Am I.wav Peak level 100.0 %
Extraction speed 6.6 X
Track quality 100.0 %
Test CRC BB633E2E
Copy CRC BB633E2E
Accurately ripped (confidence 6) [DC778608] (AR v2)
Copy OK

Track 6 Filename C:\06 - Medication.wav Peak level 81.0 %
Extraction speed 5.8 X
Track quality 99.9 %
Test CRC A403D757
Copy CRC A403D757
Accurately ripped (confidence 6) [548071CE] (AR v2)
Copy OK

Track 7 Filename C:\07 - Aoidh, Na Dean Cadal Idir (Part 2).wav Peak level 57.9 %
Extraction speed 5.2 X
Track quality 100.0 %
Test CRC 7B1EAB5C
Copy CRC 7B1EAB5C
Accurately ripped (confidence 6) [8E463D12] (AR v2)
Copy OK

Track 8 Filename C:\08 - The Impossibility Of Silence.wav Peak level 64.7 %
Extraction speed 7.7 X
Track quality 100.0 %
Test CRC 733D06FB
Copy CRC 733D06FB
Accurately ripped (confidence 6) [19352A80] (AR v2)
Copy OK

Track 9 Filename C:\09 - I See Your Eyes Before Me.wav Peak level 83.2 %
Extraction speed 7.5 X
Track quality 100.0 %
Test CRC C8472B8D
Copy CRC C8472B8D
Accurately ripped (confidence 6) [D05F4494] (AR v2)
Copy OK

Track 10 Filename C:\10 - A Letter.wav Peak level 82.0 %
Extraction speed 7.9 X
Track quality 100.0 %
Test CRC D19B3B18
Copy CRC D19B3B18
Accurately ripped (confidence 6) [FAFF1B53] (AR v2)
Copy OK

Track 11 Filename C:\11 - Aoidh, Na Dean Cadal Idir (Part 3).wav Peak level 66.1 %
Extraction speed 7.8 X
Track quality 100.0 %
Test CRC 1193A70C
Copy CRC 1193A70C
Accurately ripped (confidence 6) [02EF720A] (AR v2)
Copy OK

Track 12 Filename C:\12 - Looking For Ornette.wav Peak level 86.2 %
Extraction speed 7.9 X
Track quality 100.0 %
Test CRC C3BB83AF
Copy CRC C3BB83AF
Accurately ripped (confidence 6) [EC35307E] (AR v2)
Copy OK

All tracks accurately ripped

No errors occurred

End of status report

==== Log checksum 2B09637B03CD35E7E8395D3EF3CDE7374E15AEFC3018802841167761A708F797 ====

http://i70.fastpic.ru/big/2015/0627/c3/4c29efe1e92601751da351ce88ff51c3.jpg

http://i69.fastpic.ru/big/2015/0627/25/c6d3d94886cd5f49f807898a41418525.jpg


All thanks goes to the original releaser!
DOWNLOAD LINKS:
Buy Premium To Support Me & Get Resumable Support & Max Speed


Links are Interchangeable - No Password - Single Extraction

Andy Sheppard Quartet - Surrounded by Sea (2015) {ECM 2432} Fast Download


Ad2

 
 
 
Dear visitor, you went to the site as an unregistered user. We encourage you to register or enter the site under your name.
 
   
 
 (Votes #: 0)