2013Zone For Latest Downloads

 
     
 
Legal Downloads » Music » Never The Bride - Vancouver 97 (2009)
Menu
Home Applications
Games Movies
Music TV Shows
Torrents Graphics

Sitemap

RSS
 
Advanced Search
Last News
Site Info
Top Contributors:
  1    supper88 32766
  2    admin 32693
  3    Whisky 10080
  4    Shark_ 8911
  5    creativelivenew 8706
  6    whathesupa 2799
  7    candymypost 840
  8    hvnteam 629
  9    vuong87 3


Articles:
  This Hour: 0
  Today: 0
  This Month: 10
  All Time: 515561


Torrents:
  Today: 0
  Yesterday: 0
  All Time: 156684


Membership:
  Registered Today :0
  This Hour:0
  This Month:0
  Total:14
  Banned:1

{online}
{inform_torrent}
Friend:
We Recomend
Trend
Trend
Ad1

Search In Site

Music : Never The Bride - Vancouver 97 (2009)
 
http://i71.fastpic.ru/big/2015/0627/c4/48be2d6305dbec4272c12b35c81bbac4.jpg

Never The Bride - Vancouver 97 (2009)
EAC Rip | FLAC (Img) + Cue + Log ~ 476 Mb | MP3 CBR320 ~ 143 Mb
Scans (JPG, 600 dpi) ~ 61 Mb | RAR 5% Recovery
Rock, Blues-Rock, Soul, Adult Contemporary | Lock Stock And Barrel Records #LSBRCD08

"We recorded this album as the title tells, in Vancouver 1997. The main man at Universal Records, Doug Morris, had personally signed us to the label. Why it has taken twelve years to get this music out, we don't know... "it's just the way it goes." Never The Bride never give up. We have rescued our music from the vaults of The Armoury where our album was recorded with the late and legendary producer Bruce Fairbairn, who produced colossal platinum selling albums for Aerosmith, Metallica, Bon Jovi, INXS, Kiss and Van Halen. Sadly he died soon after our album was recorded. A great guy who really loved his music and Never The Bride. The musicians joining Nikki and Been on this album were Doug Boyle on guitars, Trevor Barry on Bass, Frosty Beadle on Drums and additional programming and keyboards from Canadian, John Webster. Our songs have now been mastered all these years later and brought to you by our own indie label, Lock Stock and Barrel Records..."

Official Website | Wiki | Discogs | All Music
***************

http://i69.fastpic.ru/big/2015/0627/81/7caa3e0efd5beeda84ef794252aa2981.jpg

Track List:

01. Who Do You Love [04:02]
02. Nothing [04:19]
03. Open My Eyes [04:35]
04. Mind That Child [04:22]
05. She Knows You Know [05:12]
06. Ball And Chain [04:34]
07. Gotta Get Back [04:51]
08. Language Of Love [04:47]
09. What's The Big Deal [04:36]
10. Kiss Kiss [04:24]
11. If I Close My Eyes [05:16]
12. Colour Him Blue [04:29]
13. Never The Bride [04:32]

Exact Audio Copy V1.0 beta 3 from 29. August 2011

Отчёт EAC об извлечении, выполненном 25. мая 2015, 16:06

Never The Bride / Vancouver 97

Дисковод: PLEXTOR DVDR PX-880SA Adapter: 1 ID: 0

Режим чтения : Достоверность
?спользование точного потока : Да
Отключение кэ?а аудио : Да
?спользование указателей C2 : Нет

Коррекция смещения при чтении : 6
Способность читать области Lead-in и Lead-out : Нет
Заполнение пропущенных сэмплов ти?иной : Да
Удаление блоков с ти?иной в начале и конце : Нет
При вычислениях CRC использовались нулевые сэмплы : Да
?нтерфейс : Установленный вне?ний ASPI-интерфейс

Выходной формат : Пользовательский кодировщик
Выбранный битрейт : 1024 kBit/s
Качество : Высокий
Добавление ID3-тега : Нет
Утилита сжатия : C:\Program Files\Exact Audio Copy\FLAC\FLAC.EXE
Дополнительные параметры : -10 -V -T "ARTIST=%artist%" -T "ALBUM=%albumtitle%" -T "DATE=%year%" -T "GENRE=%genre%" -T "COMMENT=ripped by izia1956" %source%

TOC извлечённого CD Трек | Старт | Длительность | Начальный сектор | Конечный сектор

1 | 0:00.00 | 4:01.02 | 0 | 18076
2 | 4:01.02 | 4:18.08 | 18077 | 37434
3 | 8:19.10 | 4:34.01 | 37435 | 57985
4 | 12:53.11 | 4:21.04 | 57986 | 77564
5 | 17:14.15 | 5:11.32 | 77565 | 100921
6 | 22:25.47 | 4:33.33 | 100922 | 121429
7 | 26:59.05 | 4:50.71 | 121430 | 143250
8 | 31:50.01 | 4:46.14 | 143251 | 164714
9 | 36:36.15 | 4:36.00 | 164715 | 185414
10 | 41:12.15 | 4:23.70 | 185415 | 205209
11 | 45:36.10 | 5:15.31 | 205210 | 228865
12 | 50:51.41 | 4:28.21 | 228866 | 248986
13 | 55:19.62 | 4:31.64 | 248987 | 269375

Характеристики диапазона извлечения и сообщения об о?ибках

Выбранный диапазон ?мя файла D:\BitComet\Never The Bride (flac)\2009 - Vancouver 97\Never The Bride - Vancouver 97.wav Пиковый уровень 100.0 %
Скорость извлечения 2.9 X
Качество диапазона 100.0 %
CRC теста F8FD0505
CRC копии F8FD0505
Копирование... OK

О?ибок не произо?ло


AccurateRip: сводка

Трек 1 : извлечено точно (доверие 2) [4AE0BCC2] (AR v2)
Трек 2 : извлечено точно (доверие 2) [4498D237] (AR v2)
Трек 3 : извлечено точно (доверие 2) [3C488B7E] (AR v2)
Трек 4 : извлечено точно (доверие 2) [CF5F7A11] (AR v2)
Трек 5 : извлечено точно (доверие 2) [05802D46] (AR v2)
Трек 6 : извлечено точно (доверие 2) [6AF87ED2] (AR v2)
Трек 7 : извлечено точно (доверие 2) [07FABA04] (AR v2)
Трек 8 : извлечено точно (доверие 2) [1A952FB5] (AR v2)
Трек 9 : извлечено точно (доверие 2) [EF87701A] (AR v2)
Трек 10 : извлечено точно (доверие 2) [A3EB2DA4] (AR v2)
Трек 11 : извлечено точно (доверие 2) [46F6C568] (AR v2)
Трек 12 : извлечено точно (доверие 2) [9ACEE9F4] (AR v2)
Трек 13 : извлечено точно (доверие 2) [CBDC9181] (AR v2)

Все треки извлечены точно

Конец отчёта

==== Контрольная сумма отчёта 595FF299E6D3A1CD60DDA96CC28466AF37136DE7AA2F16ABCFB3327F9479A294 ====

foobar2000 1.2.6 / Dynamic Range Meter 1.1.1
log date: 2015-06-25 11:15:51

------
Analyzed: Never The Bride / Vancouver 97
------

DR Peak RMS Duration Track
------
DR6 -0.26 dB -7.63 dB 4:01 01-Who Do You Love
DR7 -0.26 dB -9.04 dB 4:18 02-Nothing
DR6 -0.26 dB -9.29 dB 4:34 03-Open My Eyes
DR6 -0.23 dB -8.80 dB 4:21 04-Mind That Child
DR6 -0.26 dB -7.68 dB 5:11 05-She Knows You Know
DR7 -0.26 dB -8.85 dB 4:33 06-Ball And Chain
DR6 0.00 dB -8.64 dB 4:51 07-Gotta Get Back
DR5 -0.23 dB -7.51 dB 4:46 08-Language Of Love
DR6 -0.24 dB -8.79 dB 4:36 09-What's The Big Deal
DR6 -0.24 dB -7.20 dB 4:24 10-Kiss Kiss
DR6 0.00 dB -8.96 dB 5:15 11-If I Close My Eyes
DR8 -0.29 dB -10.51 dB 4:28 12-Colour Him Blue
DR5 -0.26 dB -7.47 dB 4:32 13-Never The Bride
------

Number of tracks: 13
Official DR value: DR6

Samplerate: 44100 Hz
Channels: 2
Bits per sample: 16
Bitrate: 1060 kbps
Codec: FLAC

[CUETools log; Date: 25.06.2015 11:15:50; Version: 2.1.5]
[CTDB TOCID: LbfUBOtBCll9sXlzET4SIOscsXA-] disk not present in database.
[AccurateRip ID: 001c5ea3-011d9dd1-a10e070d] found.
Track [ CRC | V2 ] Status
01 [42783e03|4ae0bcc2] (2+2/4) Accurately ripped
02 [e9869c1d|4498d237] (2+2/4) Accurately ripped
03 [4c00e9b6|3c488b7e] (2+2/4) Accurately ripped
04 [8e396936|cf5f7a11] (2+2/4) Accurately ripped
05 [d92c99b8|05802d46] (2+2/4) Accurately ripped
06 [3686b213|6af87ed2] (2+2/4) Accurately ripped
07 [3e8e4892|07faba04] (2+2/4) Accurately ripped
08 [9c83f185|1a952fb5] (2+2/4) Accurately ripped
09 [284eb41a|ef87701a] (2+2/4) Accurately ripped
10 [1977c3d6|a3eb2da4] (2+2/4) Accurately ripped
11 [41617484|46f6c568] (2+2/4) Accurately ripped
12 [c7098806|9acee9f4] (2+2/4) Accurately ripped
13 [1db81cbe|cbdc9181] (2+2/4) Accurately ripped

Track Peak [ CRC32 ] [W/O NULL] [ LOG ]
-- 100,0 [F8FD0505] [A5603E14] CRC32
01 97,0 [DC6A42F5] [46DF9B33]
02 97,0 [8C7D2638] [7FB9E7F5]
03 97,0 [1A278904] [C19F0448]
04 97,3 [CBD6F447] [DB978ACB]
05 97,0 [EF5E333F] [893927EF]
06 96,9 [13733357] [C83B69CC]
07 100,0 [7FEF65F3] [9C50EE83]
08 97,3 [30C5C5DD] [9FD1F821]
09 97,2 [24C806A6] [4658A2AC]
10 97,2 [ADFFB51C] [F1D71B08]
11 100,0 [0D544D47] [AD437123]
12 96,7 [70D457C7] [6F207799]
13 97,1 [ED5C14B3] [D6CFBA0B]

http://i72.fastpic.ru/big/2015/0627/a6/a957287c75852158885bfa88c4bfd3a6.jpg


DOWNLOAD LINKS:
Buy Premium To Support Me & Get Resumable Support & Max Speed


Links are Interchangeable - No Password - Single Extraction

Never The Bride - Vancouver 97 (2009) Fast Download


Ad2

 
 
 
Dear visitor, you went to the site as an unregistered user. We encourage you to register or enter the site under your name.
 
   
 
 (Votes #: 0)