2013Zone For Latest Downloads

 
     
 
Legal Downloads » Music » Michael Schenker Group - The Unforgiven (1999) [Japanese Ed.]
Menu
Home Applications
Games Movies
Music TV Shows
Torrents Graphics

Sitemap

RSS
 
Advanced Search
Last News
Site Info
Top Contributors:
  1    supper88 32766
  2    admin 32693
  3    Whisky 10080
  4    Shark_ 8911
  5    creativelivenew 8706
  6    whathesupa 2799
  7    candymypost 840
  8    hvnteam 629
  9    vuong87 3


Articles:
  This Hour: 0
  Today: 0
  This Month: 10
  All Time: 515561


Torrents:
  Today: 0
  Yesterday: 0
  All Time: 156684


Membership:
  Registered Today :0
  This Hour:0
  This Month:0
  Total:14
  Banned:1

{online}
{inform_torrent}
Friend:
We Recomend
Trend
Trend
Ad1

Search In Site

Music : Michael Schenker Group - The Unforgiven (1999) [Japanese Ed.]
 
http://i70.fastpic.ru/big/2015/0627/4b/d2191724f9aa5cc33600e91903022d4b.jpg

Michael Schenker Group - The Unforgiven (1999) [Japanese Ed.]
EAC Rip | WavPack (*.wv): Image+Cue+Log | 443 Mb | MP3 CBR 320 kbps | 165 Mb | Scans | Time: 57:45
Genre: Hard Rock | Label: Nippon Crown Co., Ltd. | Cat.#: CRCL-4720

"German guitarist Michael Schenker, known for his distinctive guitar work with Scorpions, UFO and MSG, recently joined the cadre of Shrapnel guitar giants with "The Unforgiven". This CD captures some of Michael's best playing to date, in a classic hard rock/metal context true to his roots and his fans. Featuring phenomenal vocalist Kelly Keeling and powerful drummer Shane Gaalaas, "The Unforgiven" smokes with red-hot rockers like "Rude Awakening", "The Mess I've Made", "Pilot Of Your Soul" and more. Schenker shows no signs of slowing down."



Track Listing

01. Rude Awakening (05:05)
02. The Mess I've Made (04:33)
03. In And Out Of Time (03:47)
04. Hello Angel (05:15)
05. Fat City N.O. (04:18)
06. Tower (05:13)
07. Pilot Of Your Soul (04:27)
08. Forever And More (05:45)
09. Turning Off The Emotion (05:17)
10. Live For Today (04:42)
11. Illusion (03:59)
12. The Storm (05:18)

Produced by Mike Varney and Michael Schenker

The Band

* Michael Schenker - Lead and Rhythm Guitars
* Kelly Keeling - Vocals
* Shane Gaalaas - Drums
* Seth "Sneef" Bernstein - Keyboards and additional Rhythm Guitars
* John Onder - Bass

Special guests

* Jesse Bradman - Keyboards on tracks, 4, 8, 12 and Background Vocals on Tracks, 5, 11
* Louis Maldonado - Rhythm guitar on "Rude Awakening" and background vocals on "Fat City N.O."

http://i69.fastpic.ru/big/2015/0627/6f/16d8bd978d3ee2d74d9ef2eb48c7376f.jpg



Exact Audio Copy V0.99 prebeta 5 from 4. May 2009

EAC extraction logfile from 5. March 2013, 17:24

MSG / The Unforgiven.(.Nipon Crown.Japan)

Used drive : Optiarc DVD RW AD-5280S Adapter: 2 ID: 0

Read mode : Secure
Utilize accurate stream : Yes
Defeat audio cache : Yes
Make use of C2 pointers : No

Read offset correction

: 48
Overread into Lead-In and Lead-Out : No
Fill up missing offset samples with silence : Yes
Delete leading and trailing silent blocks : No
Null samples used in CRC calculations : Yes
Used interface
: Native Win32 interface for Win NT & 2000

Used output format : User Defined Encoder
Selected bitrate : 896 kBit/s
Quality : High
Add ID3 tag : No
Command line compressor : C:\Program Files (x86)\Exact Audio Copy\wavpack.exe
Additional command line options : -hlm %s

TOC of the extracted CD Track | Start | Length | Start sector | End sector
1 | 0:00.00 | 5:05.22 | 0 | 22896 2 | 5:05.22 | 4:33.68 | 22897 | 43439 3 | 9:39.15 | 3:47.00 | 43440 | 60464 4 | 13:26.15 | 5:15.65 | 60465 | 84154 5 | 18:42.05 | 4:18.47 | 84155 | 103551 6 | 23:00.52 | 5:13.35 | 103552 | 127061 7 | 28:14.12 | 4:27.63 | 127062 | 147149 8 | 32:42.00 | 5:45.15 | 147150 | 173039 9 | 38:27.15 | 5:17.07 | 173040 | 196821
10 | 43:44.22 | 4:42.58 | 196822 | 218029
11 | 48:27.05 | 3:59.22 | 218030 | 235976
12 | 52:26.27 | 5:18.48 | 235977 | 259874

Range status and errors

Selected range Filename C:\Users\Bishop\Desktop\MSG - The Unforgiven.(1999.Nipon Crown.Japan).wv\MSG - The Unforgiven.(.Nipon Crown.Japan).wav Peak level 99.8 %
Range quality 100.0 %
Test CRC DFCF7ABD
Copy CRC DFCF7ABD
Copy OK

No errors occurred


AccurateRip summary

Track 1 accurately ripped (confidence 1) [8BA925C1]
Track 2 accurately ripped (confidence 1) [C38B772A]
Track 3 accurately ripped (confidence 1) [66DF9FFB]
Track 4 accurately ripped (confidence 1) [AF177749]
Track 5 accurately ripped (confidence 1) [54D1FF11]
Track 6 accurately ripped (confidence 1) [6C7F15EA]
Track 7 accurately ripped (confidence 1) [DCE6C1CF]
Track 8 accurately ripped (confidence 1) [4F2B38F4]
Track 9 accurately ripped (confidence 1) [E981A4CB]
Track 10 accurately ripped (confidence 1) [3D2CCADC]
Track 11 accurately ripped (confidence 1) [DEE59B3A]
Track 12 accurately ripped (confidence 1) [365D7410]

All tracks accurately ripped

End of status report

Many thanks to the original uploader: Hand made
DOWNLOAD LINKS:
Buy Premium To Support Me & Get Resumable Support & Max Speed


Links are Interchangeable - No Password - Single Extraction

Michael Schenker Group - The Unforgiven (1999) [Japanese Ed.] Fast Download


Ad2

 
 
 
Dear visitor, you went to the site as an unregistered user. We encourage you to register or enter the site under your name.
 
   
 
 (Votes #: 0)