2013Zone For Latest Downloads

 
     
 
Legal Downloads » Music » Shorty Rogers And His Giants - The Swinging Mr. Rogers (1955) {2012 Japan 24-bit Remaster} [Jazz Best Collection 1000 Series]
Menu
Home Applications
Games Movies
Music TV Shows
Torrents Graphics

Sitemap

RSS
 
Advanced Search
Last News
Site Info
Top Contributors:
  1    supper88 32766
  2    admin 32693
  3    Whisky 10080
  4    Shark_ 8911
  5    creativelivenew 8706
  6    whathesupa 2799
  7    candymypost 840
  8    hvnteam 629
  9    vuong87 3


Articles:
  This Hour: 0
  Today: 0
  This Month: 0
  All Time: 515561


Torrents:
  Today: 0
  Yesterday: 0
  All Time: 156684


Membership:
  Registered Today :0
  This Hour:0
  This Month:0
  Total:14
  Banned:1

{online}
{inform_torrent}
Friend:
We Recomend
Trend
Trend
Ad1

Search In Site

Music : Shorty Rogers And His Giants - The Swinging Mr. Rogers (1955) {2012 Japan 24-bit Remaster} [Jazz Best Collection 1000 Series]
 

http://i71.fastpic.ru/big/2015/0627/8e/1ff6743017d0ab88770eb54ed53c4d8e.jpg
Shorty Rogers And His Giants - The Swinging Mr. Rogers (1955) {2012 Japan 24-bit Remaster} [Jazz Best Collection 1000 Series]
EAC rip (secure mode) | FLAC (tracks)+CUE+LOG -> 282 Mb | MP3 @320 -> 108 Mb
Full Artwork @ 600 dpi (png) -> 156 Mb | 5% repair rar | 24-bit remaster
© 2012 Atlantic / Warner Japan / Rhino | WPCR-27077 | Jazz Best Collection 1000 Series
Jazz / Cool / West Coast Jazz / Trumpet

"Features 24 bit remastering and comes with a mini-description. A standout set from Shorty - tightly arranged numbers performed by a quartet that includes Jimmy Giuffre, Pete Jolly, Curtis Counce, and Shelly Manne - all working with Shorty in perfect west coast form! Despite the length of the tunes, the overall feel is similar to Rogers' excellent Wherever The Five Winds Blow album for RCA - and makes the record a great set, done without any gimmicks or tricks - and enough of the modern touch still left from Rogers' first few years on record. Titles include "Martians Go Home", "Trickleydidlier", "Not Really The Blues", and "Michele's Meditation"."

http://i69.fastpic.ru/big/2015/0627/8e/20aa7156f7daa8ed8aad850b0594848e.jpg


Personnel:
Shorty Rogers - trumpet
Jimmy Giuffre - clarinet, tenor sax and baritone sax
Pete Jolly - piano
Curtis Counce - bass
Shelly Manne - drums

tracklist:
01 - Isn't It Romantic
02 - Trickleydidlier
03 - Oh Play That Thing
04 - Not Really The Blues
05 - Martians Go Home
06 - My Heart Stood Still
07 - Michele's Meditation
08 - That's What I'm Talkin' 'Bout

Exact Audio Copy V1.0 beta 6 from 9. April 2015

EAC extraction logfile from 18. June 2015, 13:13

Shorty Rogers And His Giants / The Swinging Mr. Rogers

Used drive : ATAPI iHAS124 B Adapter: 2 ID: 0

Read mode : Secure
Utilize accurate stream : Yes
Defeat audio cache : Yes
Make use of C2 pointers : No

Read offset correction

: 6
Overread into Lead-In and Lead-Out : No
Fill up missing offset samples with silence : Yes
Delete leading and trailing silent blocks : No
Null samples used in CRC calculations : Yes
Used interface
: Installed external ASPI interface
Gap handling
: Appended to previous track

Used output format : User Defined Encoder
Selected bitrate : 1024 kBit/s
Quality : High
Add ID3 tag : No
Command line compressor : C:\Program Files (x86)\FLAC Frontend\tools\flac.exe
Additional command line options : -8 -V -T "ARTIST=%artist%" -T "TITLE=%title%" -T "ALBUM=%albumtitle%" -T "DATE=%year%" -T "TRACKNUMBER=%tracknr%" -T "TOTALTRACKS=%numtracks%" -T "GENRE=%genre%" -T "ALBUMARTIST=%albumartist%" -T "ALBUM ARTIST=%albumartist%" -T "COMMENT=EAC Secure Mode, Test & Copy, AccurateRip, FLAC -8" %source%

TOC of the extracted CD Track | Start | Length | Start sector | End sector
1 | 0:00.00 | 5:45.17 | 0 | 25891 2 | 5:45.17 | 4:41.13 | 25892 | 46979 3 | 10:26.30 | 6:31.66 | 46980 | 76370 4 | 16:58.21 | 4:58.50 | 76371 | 98770 5 | 21:56.71 | 7:56.34 | 98771 | 134504 6 | 29:53.30 | 6:12.32 | 134505 | 162436 7 | 36:05.62 | 3:55.73 | 162437 | 180134 8 | 40:01.60 | 5:33.73 | 180135 | 205182

Track 1 Filename D:\_EAC\Shorty Rogers And His Giants - The Swinging Mr. Rogers (1955) [FLAC] {2012 Japan 24-bit Remaster}\01 - Isn't It Romantic.wav Pre-gap length 0:00:02.00 Peak level 100.0 %
Extraction speed 3.6 X
Track quality 100.0 %
Test CRC 5146B71D
Copy CRC 5146B71D
Track not present in AccurateRip database
Copy OK

Track 2 Filename D:\_EAC\Shorty Rogers And His Giants - The Swinging Mr. Rogers (1955) [FLAC] {2012 Japan 24-bit Remaster}\02 - Trickleydidlier.wav Pre-gap length 0:00:01.19 Peak level 100.0 %
Extraction speed 3.4 X
Track quality 99.9 %
Test CRC 74A7E562
Copy CRC 74A7E562
Track not present in AccurateRip database
Copy OK

Track 3 Filename D:\_EAC\Shorty Rogers And His Giants - The Swinging Mr. Rogers (1955) [FLAC] {2012 Japan 24-bit Remaster}\03 - Oh Play That Thing.wav Pre-gap length 0:00:01.12 Peak level 100.0 %
Extraction speed 4.7 X
Track quality 100.0 %
Test CRC 0A1B997F
Copy CRC 0A1B997F
Track not present in AccurateRip database
Copy OK

Track 4 Filename D:\_EAC\Shorty Rogers And His Giants - The Swinging Mr. Rogers (1955) [FLAC] {2012 Japan 24-bit Remaster}\04 - Not Really The Blues.wav Pre-gap length 0:00:01.27 Peak level 100.0 %
Extraction speed 5.0 X
Track quality 100.0 %
Test CRC 713EB1A4
Copy CRC 713EB1A4
Track not present in AccurateRip database
Copy OK

Track 5 Filename D:\_EAC\Shorty Rogers And His Giants - The Swinging Mr. Rogers (1955) [FLAC] {2012 Japan 24-bit Remaster}\05 - Martians Go Home.wav Pre-gap length 0:00:01.08 Peak level 100.0 %
Extraction speed 5.7 X
Track quality 100.0 %
Test CRC 5FA8D659
Copy CRC 5FA8D659
Track not present in AccurateRip database
Copy OK

Track 6 Filename D:\_EAC\Shorty Rogers And His Giants - The Swinging Mr. Rogers (1955) [FLAC] {2012 Japan 24-bit Remaster}\06 - My Heart Stood Still.wav Pre-gap length 0:00:01.59 Peak level 100.0 %
Extraction speed 6.0 X
Track quality 100.0 %
Test CRC 80FF0CDD
Copy CRC 80FF0CDD
Track not present in AccurateRip database
Copy OK

Track 7 Filename D:\_EAC\Shorty Rogers And His Giants - The Swinging Mr. Rogers (1955) [FLAC] {2012 Japan 24-bit Remaster}\07 - Michele's Meditation.wav Pre-gap length 0:00:01.14 Peak level 100.0 %
Extraction speed 6.0 X
Track quality 100.0 %
Test CRC 012E7163
Copy CRC 012E7163
Track not present in AccurateRip database
Copy OK

Track 8 Filename D:\_EAC\Shorty Rogers And His Giants - The Swinging Mr. Rogers (1955) [FLAC] {2012 Japan 24-bit Remaster}\08 - That's What I'm Talkin' 'Bout.wav Pre-gap length 0:00:01.30 Peak level 100.0 %
Extraction speed 5.4 X
Track quality 99.9 %
Test CRC B26CF68E
Copy CRC B26CF68E
Track not present in AccurateRip database
Copy OK

None of the tracks are present in the AccurateRip database

No errors occurred

End of status report

==== Log checksum 86209D5A8CC850E9F6CE81D19E2D99440912D02D9EFFC755BB422C41C4CFD055 ====

http://i69.fastpic.ru/big/2015/0627/f1/cf40f1391d58c2f322c2b4917c91c2f1.jpg

http://i71.fastpic.ru/big/2015/0627/81/1b4908b37d4c2689e20eebcf09d61381.jpg

DOWNLOAD LINKS:
Buy Premium To Support Me & Get Resumable Support & Max Speed


Links are Interchangeable - No Password - Single Extraction

Shorty Rogers And His Giants - The Swinging Mr. Rogers (1955) {2012 Japan 24-bit Remaster} [Jazz Best Collection 1000 Series] Fast Download


Ad2

 
 
 
Dear visitor, you went to the site as an unregistered user. We encourage you to register or enter the site under your name.
 
   
 
 (Votes #: 0)