2013Zone For Latest Downloads

 
     
 
Legal Downloads » Music » Glenn Frey - Live (1993)
Menu
Home Applications
Games Movies
Music TV Shows
Torrents Graphics

Sitemap

RSS
 
Advanced Search
Last News
Site Info
Top Contributors:
  1    supper88 32766
  2    admin 32693
  3    Whisky 10080
  4    Shark_ 8911
  5    creativelivenew 8706
  6    whathesupa 2799
  7    candymypost 840
  8    hvnteam 629
  9    vuong87 3


Articles:
  This Hour: 0
  Today: 0
  This Month: 10
  All Time: 515561


Torrents:
  Today: 0
  Yesterday: 0
  All Time: 156684


Membership:
  Registered Today :0
  This Hour:0
  This Month:0
  Total:14
  Banned:1

{online}
{inform_torrent}
Friend:
We Recomend
Trend
Trend
Ad1

Search In Site

Music : Glenn Frey - Live (1993)
 
http://i70.fastpic.ru/big/2015/0627/f3/a934404590ace43924f870b80c132af3.jpg

Glenn Frey - Live (1993)
EAC Rip | FLAC (Img) + Cue + Log ~ 501 Mb | MP3 CBR320 ~ 189 Mb
Scans Included (JPG, 400 dpi) | RAR 5% Recovery
Classic Rock, Soft Rock | MCA Records #MCAD-10826

"Glenn Lewis Frey is an American musician, singer, songwriter, producer and actor, best known as a founding member of the Eagles. As a member of Eagles, Frey won six Grammy Awards, and five American Music Awards. The Eagles have sold over 120 million albums worldwide and were inducted into the Rock and Roll Hall of Fame in 1998, the first year they were nominated. As a solo artist and with Eagles combined, Frey has released 24 Top 40 singles on the Billboard Hot 100. In the course of this 70-minute, 14-song live disc, recorded at the Stadium in Dublin on July 8, 1992, Glenn Frey divides the set list just about equally between solo material and old Eagles songs. As such, it provides a good sampler of Frey's career in total, from "Take It Easy" to "Smuggler's Blues"..."

Official Website | Wiki | Discogs | All Music
***************

http://i71.fastpic.ru/big/2015/0627/14/fadbceac213d50c21bbebfb73eef9414.jpg

Track List:

01. Peaceful Easy Feeling [02:37]
02. New Kid In Town [06:09]
03. The One You Love [05:16]
04. Wild Mountain Thyme [04:32]
05. Strange Weather [05:05]
06. I've Got Mine [05:58]
07. Lyin' Eyes \ Take It Easy [05:56]
08. River Of Dreams [04:58]
09. True Love [05:25]
10. Love In The 21St Century [06:10]
11. Smuggler's Blues [03:51]
12. The Heat Is On [04:31]
13. Heartache Tonight [06:04]
14. Desperado [04:05]

Exact Audio Copy V1.0 beta 3 from 29. August 2011

EAC extraction logfile from 20. June 2015, 19:08

Glenn Frey / Live

Used drive : PIONEER BD-RW BDR-TD03 Adapter: 0 ID: 1

Read mode : Secure
Utilize accurate stream : Yes
Defeat audio cache : Yes
Make use of C2 pointers : No

Read offset correction

: 667
Overread into Lead-In and Lead-Out : No
Fill up missing offset samples with silence : Yes
Delete leading and trailing silent blocks : No
Null samples used in CRC calculations : Yes
Used interface
: Native Win32 interface for Win NT & 2000

Used output format : User Defined Encoder
Selected bitrate : 768 kBit/s
Quality : High
Add ID3 tag : No
Command line compressor : C:\Program Files (x86)\Exact Audio Copy\FLAC\FLAC.EXE
Additional command line options : -6 -V -T "ARTIST=%artist%" -T "TITLE=%title%" -T "ALBUM=%albumtitle%" -T "DATE=%year%" -T "TRACKNUMBER=%tracknr%" -T "GENRE=%genre%" -T "COMMENT=%comment%" -T "BAND=%albuminterpret%" -T "ALBUMARTIST=%albuminterpret%" -T "COMPOSER=%composer%" %haslyrics%--tag-from-file=LYRICS="%lyricsfile%"%haslyrics% -T "DISCNUMBER=%cdnumber%" -T "TOTALDISCS=%totalcds%" -T "TOTALTRACKS=%numtracks%" %hascover%--picture="%coverfile%"%hascover% %source% -o %dest%

TOC of the extracted CD Track | Start | Length | Start sector | End sector
1 | 0:00.37 | 2:36.38 | 37 | 11774 2 | 2:37.00 | 6:08.22 | 11775 | 39396 3 | 8:45.22 | 5:15.23 | 39397 | 63044 4 | 14:00.45 | 4:31.22 | 63045 | 83391 5 | 18:31.67 | 5:04.65 | 83392 | 106256 6 | 23:36.57 | 5:57.65 | 106257 | 133096 7 | 29:34.47 | 5:55.13 | 133097 | 159734 8 | 35:29.60 | 4:57.67 | 159735 | 182076 9 | 40:27.52 | 5:24.18 | 182077 | 206394
10 | 45:51.70 | 6:09.30 | 206395 | 234099
11 | 52:01.25 | 3:50.62 | 234100 | 251411
12 | 55:52.12 | 4:30.70 | 251412 | 271731
13 | 60:23.07 | 6:03.20 | 271732 | 298976
14 | 66:26.27 | 4:04.18 | 298977 | 317294

Range status and errors

Selected range Filename C:\Users\Deris\Desktop\freiliv\Glenn Frey - Live.wav Peak level 100.0 %
Extraction speed 5.0 X
Range quality 100.0 %
Test CRC B36B2821
Copy CRC B36B2821
Copy OK

No errors occurred


AccurateRip summary

Track 1 accurately ripped (confidence 22) [4404A128] (AR v2)
Track 2 accurately ripped (confidence 22) [A2A37EA5] (AR v2)
Track 3 accurately ripped (confidence 22) [418EED12] (AR v2)
Track 4 accurately ripped (confidence 22) [70E277F4] (AR v2)
Track 5 accurately ripped (confidence 22) [A5F0C764] (AR v2)
Track 6 accurately ripped (confidence 22) [DE49C285] (AR v2)
Track 7 accurately ripped (confidence 22) [0947BF86] (AR v2)
Track 8 accurately ripped (confidence 22) [2738C6D3] (AR v2)
Track 9 accurately ripped (confidence 22) [F4DA7196] (AR v2)
Track 10 accurately ripped (confidence 22) [F8EAA35C] (AR v2)
Track 11 accurately ripped (confidence 22) [4118AB57] (AR v2)
Track 12 accurately ripped (confidence 22) [96B5B8B2] (AR v2)
Track 13 accurately ripped (confidence 22) [C41CF4DE] (AR v2)
Track 14 accurately ripped (confidence 22) [FFBDA3CD] (AR v2)

All tracks accurately ripped

End of status report

---- CUETools DB Plugin V2.1.3

[CTDB TOCID: hM5P99NGAUqp_Afka0qYALQeOp0-] found, Submit result: discs with pregaps not supported in this protocol version
[af5eaf06] (5/5) Differs in 0 samples @
You can use CUETools to repair this rip.

==== Log checksum 5162087CC99CE4C369F8D96CA8EADF447E537B28CACB42C52B09C0BCDB3EC353 ====

foobar2000 1.2.6 / Dynamic Range Meter 1.1.1
log date: 2015-06-24 14:50:39

------
Analyzed: Glenn Frey / Live
------

DR Peak RMS Duration Track
------
DR12 -0.23 dB -14.47 dB 2:37 01-Peaceful Easy Feeling
DR12 -0.01 dB -14.18 dB 6:08 02-New Kid In Town
DR13 -0.01 dB -15.11 dB 5:15 03-The One You Love
DR14 -0.21 dB -18.28 dB 4:31 04-Wild Mountain Thyme
DR13 -0.01 dB -14.44 dB 5:05 05-Strange Weather
DR12 -0.01 dB -13.82 dB 5:58 06-I've Got Mine
DR12 0.00 dB -13.91 dB 5:55 07-Lyin' Eyes \ Take It Easy
DR13 0.00 dB -14.20 dB 4:58 08-River Of Dreams
DR11 0.00 dB -12.61 dB 5:24 09-True Love
DR12 0.00 dB -12.59 dB 6:09 10-Love In The 21St Century
DR11 0.00 dB -12.04 dB 3:51 11-Smuggler's Blues
DR11 0.00 dB -12.94 dB 4:31 12-The Heat Is On
DR11 0.00 dB -13.26 dB 6:03 13-Heartache Tonight
DR14 0.00 dB -17.77 dB 4:04 14-Desperado
------

Number of tracks: 14
Official DR value: DR12

Samplerate: 44100 Hz
Channels: 2
Bits per sample: 16
Bitrate: 909 kbps
Codec: FLAC

[CUETools log; Date: 24.06.2015 14:50:38; Version: 2.1.5]
Pregap length 00:00:37.
[CTDB TOCID: hM5P99NGAUqp_Afka0qYALQeOp0-] found.
Track | CTDB Status
1 | (5/5) Accurately ripped
2 | (5/5) Accurately ripped
3 | (5/5) Accurately ripped
4 | (5/5) Accurately ripped
5 | (5/5) Accurately ripped
6 | (5/5) Accurately ripped
7 | (5/5) Accurately ripped
8 | (5/5) Accurately ripped
9 | (5/5) Accurately ripped
10 | (5/5) Accurately ripped
11 | (5/5) Accurately ripped
12 | (5/5) Accurately ripped
13 | (5/5) Accurately ripped
14 | (5/5) Accurately ripped
[AccurateRip ID: 0023fdc3-01840935-c310860e] found.
Track [ CRC | V2 ] Status
01 [611495e0|4404a128] (16+22/38) Accurately ripped
02 1507032|a2a37ea5 (16+22/38) Accurately ripped
03 [f6a80fe1|418eed12] (16+22/38) Accurately ripped
04 [3ed10f94|70e277f4] (16+22/38) Accurately ripped
05 [c0089427|a5f0c764] (16+22/38) Accurately ripped
06 [2c126a41|de49c285] (16+22/38) Accurately ripped
07 [6cccc344|0947bf86] (15+22/37) Accurately ripped
08 [5f528e5f|2738c6d3] (16+22/38) Accurately ripped
09 [fcf6908a|f4da7196] (16+22/38) Accurately ripped
10 [41c6e7ea|f8eaa35c] (16+22/38) Accurately ripped
11 [cc07244a|4118ab57] (16+22/38) Accurately ripped
12 [69effa83|96b5b8b2] (16+22/38) Accurately ripped
13 [12e8c1b5|c41cf4de] (15+22/37) Accurately ripped
14 [697d6bd6|ffbda3cd] (16+22/38) Accurately ripped
Offsetted by -43:
01 [c5491560] (00/38) No match (V2 was not tested)
02 [5e7d202b] (00/38) No match (V2 was not tested)
03 [dab4560b] (00/38) No match (V2 was not tested)
04 [8c875cb4] (00/38) No match
05 [3bb35014] (00/38) No match
06 [a210a2a7] (00/38) No match
07 [80406e40] (00/37) No match (V2 was not tested)
08 [7212e0e8] (00/38) No match
09 [c79e7dfb] (00/38) No match (V2 was not tested)
10 [1aa09bba] (00/38) No match
11 [ab9935e7] (00/38) No match (V2 was not tested)
12 [6dcb4ea4] (00/38) No match
13 [cb029e20] (00/37) No match (V2 was not tested)
14 [33c5f967] (00/38) No match (V2 was not tested)

Track Peak [ CRC32 ] [W/O NULL] [ LOG ]
-- 99,9 36B2821 [05875F27] CRC32
01 97,3 [E2E8E97B] [75DA23B0]
02 99,8 [45A26CD9] [AD74D7DB]
03 99,8 [D914BB6A] [7BC33532]
04 97,6 [8769DE32] [A4219E55]
05 99,8 [AD112F0B] [50BFC88A]
06 99,8 [7E9B4D5B] [A8AE75AC]
07 99,9 [3B7B0190] [709CF5DF]
08 99,9 [14536DAA] [3CAC265F]
09 99,9 [4ABCF8B9] [DA7CB6C1]
10 99,9 [EFF32EB2] 50151E3
11 99,9 [D1B007DC] [A35F5F32]
12 99,9 [971F7EE2] [CE069528]
13 99,9 [31367D44] [6F738C61]
14 99,9 [13142AE1] [94E738C1]

http://i72.fastpic.ru/big/2015/0627/ac/3061fb370d077b78a7e2ee43439717ac.jpg


DOWNLOAD LINKS:
Buy Premium To Support Me & Get Resumable Support & Max Speed


Links are Interchangeable - No Password - Single Extraction

Glenn Frey - Live (1993) Fast Download


Ad2

 
 
 
Dear visitor, you went to the site as an unregistered user. We encourage you to register or enter the site under your name.
 
   
 
 (Votes #: 0)