2013Zone For Latest Downloads

 
     
 
Legal Downloads » Music » Velvet Revolver - Contraband (2004)
Menu
Home Applications
Games Movies
Music TV Shows
Torrents Graphics

Sitemap

RSS
 
Advanced Search
Last News
Site Info
Top Contributors:
  1    supper88 32766
  2    admin 32693
  3    Whisky 10080
  4    Shark_ 8911
  5    creativelivenew 8706
  6    whathesupa 2799
  7    candymypost 840
  8    hvnteam 629
  9    vuong87 3


Articles:
  This Hour: 0
  Today: 0
  This Month: 10
  All Time: 515561


Torrents:
  Today: 0
  Yesterday: 0
  All Time: 156684


Membership:
  Registered Today :0
  This Hour:0
  This Month:0
  Total:14
  Banned:1

{online}
{inform_torrent}
Friend:
We Recomend
Trend
Trend
Ad1

Search In Site

Music : Velvet Revolver - Contraband (2004)
 
http://i72.fastpic.ru/big/2015/0627/f4/b40e33998662efadff56d7d62cb058f4.jpg

Velvet Revolver - Contraband (2004)
EAC Rip | FLAC (Img) + Cue + Log ~ 444 Mb | MP3 CBR320 ~ 151 Mb
Scans Included (JPG, 600 dpi) | RAR 5% Recovery
Hard Rock, Alternative Rock, Grunge | RCA Records #82876 59795 2

"Contraband is the debut studio album by American hard rock band Velvet Revolver, released on June 8, 2004 by RCA Records. A commercial success, Contraband debuted at number one on the American Billboard 200 chart and was certified double platinum by the RIAA. Velvet Revolver is an American hard rock supergroup consisting of former Guns N' Roses members Slash, Duff McKagan, and Matt Sorum, alongside Dave Kushner formerly of punk band Wasted Youth. Original vocalist Scott Weiland formerly of Stone Temple Pilots left the band in 2008. In 2004, the band achieved commercial success with their debut album, Contraband. With their single "Slither", they won the 2005 Grammy Award for Best Hard Rock Performance..."

Wiki | Discogs | All Music
***************

http://i72.fastpic.ru/big/2015/0627/3e/1db322d6dac16181e97aba54ab79543e.jpg

Track List:

01. Sucker Train Blues [04:28]
02. Do It for the Kids [03:56]
03. Big Machine [04:26]
04. Illegal I Song [04:18]
05. Spectacle [03:42]
06. Fall to Pieces [04:31]
07. Headspace [03:43]
08. Superhuman [04:16]
09. Set Me Free [04:08]
10. You Got No Right [05:36]
11. Slither [04:09]
12. Dirty Little Thing [03:58]
13. Loving the Alien [05:49]

Exact Audio Copy V1.0 beta 3 from 29. August 2011

EAC extraction logfile from 24. June 2015, 17:16

Velvet Revolver / Contraband

Used drive : PLDS DVD-RW DS8A8SH Adapter: 0 ID: 1

Read mode : Secure
Utilize accurate stream : Yes
Defeat audio cache : Yes
Make use of C2 pointers : No

Read offset correction

: 6
Overread into Lead-In and Lead-Out : No
Fill up missing offset samples with silence : Yes
Delete leading and trailing silent blocks : No
Null samples used in CRC calculations : Yes
Used interface
: Installed external ASPI interface

Used output format : User Defined Encoder
Selected bitrate : 1024 kBit/s
Quality : High
Add ID3 tag : No
Command line compressor : C:\Program Files\FLAC\flac.exe
Additional command line options : -V -8 -T "Year=%year%" -T "Genre=%genre%" %source%

TOC of the extracted CD Track | Start | Length | Start sector | End sector
1 | 0:00.00 | 4:27.58 | 0 | 20082 2 | 4:27.58 | 3:55.62 | 20083 | 37769 3 | 8:23.45 | 4:25.40 | 37770 | 57684 4 | 12:49.10 | 4:17.50 | 57685 | 77009 5 | 17:06.60 | 3:41.46 | 77010 | 93630 6 | 20:48.31 | 4:30.59 | 93631 | 113939 7 | 25:19.15 | 3:42.71 | 113940 | 130660 8 | 29:02.11 | 4:15.63 | 130661 | 149848 9 | 33:17.74 | 4:07.65 | 149849 | 168438
10 | 37:25.64 | 5:35.24 | 168439 | 193587
11 | 43:01.13 | 4:08.23 | 193588 | 212210
12 | 47:09.36 | 3:57.56 | 212211 | 230041
13 | 51:07.17 | 5:48.52 | 230042 | 256193

Range status and errors

Selected range Filename D:\[email protected]\Velvet Revolver - Contraband.wav Peak level 100.0 %
Extraction speed 3.6 X
Range quality 99.9 %
Test CRC C1C67BF7
Copy CRC C1C67BF7
Copy OK

No errors occurred


AccurateRip summary

Track 1 cannot be verified as accurate (confidence 15) [6701849C], AccurateRip returned [71D79C09] (AR v2)
Track 2 cannot be verified as accurate (confidence 14) [456CF53F], AccurateRip returned [384DC9A6] (AR v2)
Track 3 cannot be verified as accurate (confidence 14) [46251914], AccurateRip returned [5274EAE3] (AR v2)
Track 4 cannot be verified as accurate (confidence 14) [EFBEEEF0], AccurateRip returned [DD846B36] (AR v2)
Track 5 cannot be verified as accurate (confidence 14) [261EF915], AccurateRip returned [AFC319E6] (AR v2)
Track 6 cannot be verified as accurate (confidence 14) [E5691280], AccurateRip returned C741B57 (AR v2)
Track 7 cannot be verified as accurate (confidence 14) [33742240], AccurateRip returned [371723D0] (AR v2)
Track 8 cannot be verified as accurate (confidence 14) [C3505152], AccurateRip returned [3D85E056] (AR v2)
Track 9 cannot be verified as accurate (confidence 14) [8E5E1104], AccurateRip returned [DA23A503] (AR v2)
Track 10 cannot be verified as accurate (confidence 14) [DB23D68F], AccurateRip returned [9CC1B970] (AR v2)
Track 11 cannot be verified as accurate (confidence 14) [C648873F], AccurateRip returned [5C996ADE] (AR v2)
Track 12 cannot be verified as accurate (confidence 14) [7750FC27], AccurateRip returned [28E756FA] (AR v2)
Track 13 cannot be verified as accurate (confidence 14) [24AD9B82], AccurateRip returned [5691B9FA] (AR v2)

No tracks could be verified as accurate
You may have a different pressing from the one(s) in the database

End of status report

---- CUETools DB Plugin V2.1.3

[CTDB TOCID: RIyjd7LpqwKwP5xP37kXvENb61s-] found, Submit result: RIyjd7LpqwKwP5xP37kXvENb61s- has been confirmed
[71c29afa] (17/23) No match
[ae6a80cd] (06/23) Accurately ripped

==== Log checksum 464A50B6753F838C73FD6149E8B30C9084793E4839118D817EBEC01C63F1009D ====

foobar2000 1.2.6 / Dynamic Range Meter 1.1.1
log date: 2015-06-25 01:17:42

------
Analyzed: Velvet Revolver / Contraband
------

DR Peak RMS Duration Track
------
DR6 -0.97 dB -8.08 dB 4:28 01-Sucker Train Blues
DR7 0.00 dB -7.71 dB 3:56 02-Do It for the Kids
DR7 0.00 dB -8.53 dB 4:26 03-Big Machine
DR7 0.00 dB -7.68 dB 4:18 04-Illegal I Song
DR6 0.00 dB -7.12 dB 3:42 05-Spectacle
DR7 0.00 dB -8.33 dB 4:31 06-Fall to Pieces
DR8 0.00 dB -9.04 dB 3:43 07-Headspace
DR7 0.00 dB -8.37 dB 4:16 08-Superhuman
DR8 0.00 dB -8.43 dB 4:08 09-Set Me Free
DR7 0.00 dB -8.64 dB 5:35 10-You Got No Right
DR6 0.00 dB -7.59 dB 4:08 11-Slither
DR6 0.00 dB -7.63 dB 3:58 12-Dirty Little Thing
DR7 0.00 dB -8.92 dB 5:49 13-Loving the Alien
------

Number of tracks: 13
Official DR value: DR7

Samplerate: 44100 Hz
Channels: 2
Bits per sample: 16
Bitrate: 1006 kbps
Codec: FLAC

[CUETools log; Date: 25.06.2015 1:18:06; Version: 2.1.5]
[CTDB TOCID: RIyjd7LpqwKwP5xP37kXvENb61s-] found.
Track | CTDB Status
1 | ( 7/178) Accurately ripped
2 | ( 7/178) Accurately ripped
3 | ( 7/178) Accurately ripped
4 | ( 7/178) Accurately ripped
5 | ( 7/178) Accurately ripped
6 | ( 7/178) Accurately ripped
7 | ( 7/178) Accurately ripped
8 | ( 7/178) Accurately ripped
9 | ( 7/178) Accurately ripped
10 | ( 7/178) Accurately ripped
11 | ( 7/178) Accurately ripped
12 | ( 7/178) Accurately ripped
13 | ( 7/178) Accurately ripped
[AccurateRip ID: 001a912f-010a6bf6-b50d570d] found.
Track [ CRC | V2 ] Status
01 [c527b6ad|6701849c] (00+00/63) No match
02 [f107d079|456cf53f] (00+00/59) No match
03 [d61fde8d|46251914] (00+00/59) No match
04 [2371948c|efbeeef0] (00+00/59) No match
05 [9b0a5ac7|261ef915] (00+00/59) No match
06 [3b3b98ed|e5691280] (00+00/62) No match
07 [a40ff520|33742240] (00+00/59) No match
08 [031fc5b9|c3505152] (00+00/59) No match
09 [73761402|8e5e1104] (00+00/59) No match
10 [872488f2|db23d68f] (00+00/59) No match
11 [433e14ad|c648873f] (00+00/60) No match
12 [5e0bd7a9|7750fc27] (00+00/58) No match
13 bc6494f|24ad9b82 (00+00/59) No match
Offsetted by 735:
01 [7758dd6a] (14/63) Accurately ripped
02 [384dc9a6] (14/59) Accurately ripped
03 [5274eae3] (14/59) Accurately ripped
04 [dd846b36] (14/59) Accurately ripped
05 [afc319e6] (14/59) Accurately ripped
06 c741b57 (14/62) Accurately ripped
07 [371723d0] (14/59) Accurately ripped
08 [3d85e056] (14/59) Accurately ripped
09 [da23a503] (14/59) Accurately ripped
10 [9cc1b970] (14/59) Accurately ripped
11 [5c996ade] (14/60) Accurately ripped
12 [28e756fa] (14/58) Accurately ripped
13 [5691b9fa] (14/59) Accurately ripped
Offsetted by 169:
01 [21e1f3bb] (00/63) No match (V2 was not tested)
02 b671b41 (00/59) No match (V2 was not tested)
03 [dd36402e] (00/59) No match (V2 was not tested)
04 [7774ff63] (00/59) No match (V2 was not tested)
05 [f0431d30] (00/59) No match (V2 was not tested)
06 [092f2a33] (00/62) No match (V2 was not tested)
07 [de9918f0] (00/59) No match (V2 was not tested)
08 54c25b4 (00/59) No match (V2 was not tested)
09 [9e933079] (00/59) No match (V2 was not tested)
10 [db2d2984] (00/59) No match (V2 was not tested)
11 [4a42a3a1] (00/60) No match (V2 was not tested)
12 [049cd05b] (00/58) No match (V2 was not tested)
13 [a7a38fcc] (00/59) No match (V2 was not tested)
Offsetted by 723:
01 [f9364af7] (00/63) No match (V2 was not tested)
02 [11e5e683] (00/59) No match (V2 was not tested)
03 [5dd7132b] (00/59) No match (V2 was not tested)
04 [f75a078c] (00/59) No match (V2 was not tested)
05 [50568cda] (00/59) No match (V2 was not tested)
06 [2703614f] (00/62) No match (V2 was not tested)
07 [96e90c10] (00/59) No match (V2 was not tested)
08 [491bb832] (00/59) No match (V2 was not tested)
09 [54ce438f] (00/59) No match (V2 was not tested)
10 [22269a58] (00/59) No match (V2 was not tested)
11 [4f703230] (00/60) No match (V2 was not tested)
12 [5ad8deb0] (00/58) No match (V2 was not tested)
13 [15591d7e] (00/59) No match (V2 was not tested)
Offsetted by 747:
01 [e6e2a934] (00/63) No match (V2 was not tested)
02 [ce696c5d] (00/59) No match (V2 was not tested)
03 [8155c001] (00/59) No match (V2 was not tested)
04 [71fe17fb] (00/59) No match (V2 was not tested)
05 [0f2fa6f2] (00/59) No match (V2 was not tested)
06 [51e4d55f] (00/62) No match (V2 was not tested)
07 [d7453b90] (00/59) No match (V2 was not tested)
08 [31f0087a] (00/59) No match (V2 was not tested)
09 [5f790677] (00/59) No match (V2 was not tested)
10 [175cd888] (00/59) No match (V2 was not tested)
11 [3d09876e] (00/60) No match (V2 was not tested)
12 [f689ce6a] (00/58) No match (V2 was not tested)
13 [97ca5676] (00/59) No match (V2 was not tested)
Offsetted by 785:
01 [ff912b06] (00/63) No match (V2 was not tested)
02 [c7f13304] (00/59) No match (V2 was not tested)
03 [2d558577] (00/59) No match (V2 was not tested)
04 811d050 (00/59) No match (V2 was not tested)
05 [68076598] (00/59) No match (V2 was not tested)
06 [55c9cd23] (00/62) No match (V2 was not tested)
07 [a7d73170] (00/59) No match (V2 was not tested)
08 7eadcec (00/59) No match (V2 was not tested)
09 05cbb11 (00/59) No match (V2 was not tested)
10 [c6481054] (00/59) No match (V2 was not tested)
11 [0d60ccc4] (00/60) No match (V2 was not tested)
12 [7fe098fc] (00/58) No match (V2 was not tested)
13 [10fd9b54] (00/59) No match (V2 was not tested)
Offsetted by 815:
01 [9655abfb] (00/63) No match (V2 was not tested)
02 [969525ea] (00/59) No match (V2 was not tested)
03 [ab490091] (00/59) No match (V2 was not tested)
04 [83494047] (00/59) No match (V2 was not tested)
05 [d696c636] (00/59) No match (V2 was not tested)
06 [4b639e37] (00/62) No match (V2 was not tested)
07 84a6cd0 (00/59) No match (V2 was not tested)
08 [9af44146] (00/59) No match (V2 was not tested)
09 [fdb22eb3] (00/59) No match (V2 was not tested)
10 [78cbde10] (00/59) No match (V2 was not tested)
11 [05dad070] (00/60) No match (V2 was not tested)
12 [7d62b908] (00/58) No match (V2 was not tested)
13 40b228a (00/59) No match (V2 was not tested)

Track Peak [ CRC32 ] [W/O NULL] [ LOG ]
-- 100,0 [C1C67BF7] [FCCF0A90] CRC32
01 89,4 [D2F97C4B] [0FEF3AC7]
02 100,0 [024551F1] [0E0320E6]
03 100,0 [FA60DF95] [800941B2]
04 100,0 [349A761C] [1DB182B2]
05 100,0 [38DE3C50] [2C31DE12]
06 100,0 [F8859D7B] [37F8B1E6]
07 100,0 [21DCE0FD] [E0B27D30]
08 100,0 [E78B0E30] [42EA460E]
09 100,0 [11B36BE7] [C0FF056B]
10 100,0 [461B6B67] [4287D0AD]
11 100,0 [C0B11560] [189A6630]
12 100,0 [4603E1AB] [4565E055]
13 100,0 [2B44123A] 5F04D54

http://i70.fastpic.ru/big/2015/0627/d1/20aba4e35a9a0ecd681c9a64ed3df0d1.jpg


DOWNLOAD LINKS:
Buy Premium To Support Me & Get Resumable Support & Max Speed


Links are Interchangeable - No Password - Single Extraction

Velvet Revolver - Contraband (2004) Fast Download


Ad2

 
 
 
Dear visitor, you went to the site as an unregistered user. We encourage you to register or enter the site under your name.
 
   
 
 (Votes #: 0)