2013Zone For Latest Downloads

 
     
 
Legal Downloads » Music » Todd Griffin - 7 Days To The Sabbath (2015)
Menu
Home Applications
Games Movies
Music TV Shows
Torrents Graphics

Sitemap

RSS
 
Advanced Search
Last News
Site Info
Top Contributors:
  1    supper88 32766
  2    admin 32693
  3    Whisky 10080
  4    Shark_ 8911
  5    creativelivenew 8706
  6    whathesupa 2799
  7    candymypost 840
  8    hvnteam 629
  9    vuong87 3


Articles:
  This Hour: 0
  Today: 0
  This Month: 10
  All Time: 515561


Torrents:
  Today: 0
  Yesterday: 0
  All Time: 156684


Membership:
  Registered Today :0
  This Hour:0
  This Month:0
  Total:14
  Banned:1

{online}
{inform_torrent}
Friend:
We Recomend
Trend
Trend
Ad1

Search In Site

Music : Todd Griffin - 7 Days To The Sabbath (2015)
 
http://i70.fastpic.ru/big/2015/0628/17/d038c744e09437c8c6bf2ce58ca9df17.jpg

Todd Griffin - 7 Days To The Sabbath (2015)
EAC Rip | FLAC (Img) + Cue + Log ~ 461 Mb | MP3 CBR320 ~ 169 Mb
Scans Included (JPG, 600 dpi) | RAR 5% Recovery
Southern/Blues Rock | Bad Reputation #BAD 150201

"Todd Griffin is an American musician and a former member of The Graveyard Train. He is currently pursuing a solo career and has also gained fame as the singer to the first version of the theme song to the popular American television series That 70s Show. Todd Griffin was signed by Geffen Records in the 90's as the lead vocalist of The Graveyard Train. Today Griffin has broken away from the major labels and is in total control of driving his solo career in his chosen direction away from the darkness style of The Graveyard Train. Griffin's debut solo album "Trial By Fire" on the Northern Mechanical label shows his blended mystical spiritual hard rock style that has a calming effect filled with lightness which is about this artist reinventing himself not trying to make it in the business in a commercial sense..."

Wiki
***************

http://i72.fastpic.ru/big/2015/0628/87/d1f9fa15326f4fe9b1e1d8ec1f1e7887.jpg

Track List:

01. No Love In America [0:04:50.00]
02. Sundance Song [0:04:32.60]
03. New Shoes [0:04:42.45]
04. Man In The Sky [0:05:08.15]
05. Let Your Love Shine [0:04:32.60]
06. Must Be The Weather [0:03:08.60]
07. Wicked Brew [0:03:42.30]
08. Angels [0:04:28.15]
09. Almost Cut My Hair [0:04:06.00]
10. Where The River Flows [0:03:19.15]
11. Man Child [0:04:59.60]
12. Understanding [0:03:27.60]
13. Seven [0:03:46.60]
14. Every Little Wonder [0:02:53.32]

Exact Audio Copy V1.0 beta 6 from 9. April 2015

Отчёт EAC об извлечении, выполненном 24. июня 2015, 0:49

Todd Griffin / 7 Days To The Sabbath

Дисковод: _NEC DVD_RW ND-4570A Adapter: 1 ID: 0

Режим чтения : Достоверность
?спользование точного потока : Да
Отключение кэ?а аудио : Да
?спользование указателей C2 : Нет

Коррекция смещения при чтении : 48
Способность читать области Lead-in и Lead-out : Нет
Заполнение пропущенных сэмплов ти?иной : Да
Удаление блоков с ти?иной в начале и конце : Нет
При вычислениях CRC использовались нулевые сэмплы : Да
?нтерфейс : Встроенный Win32-интерфейс для Win NT/2000

Выходной формат : Пользовательский кодировщик
Выбранный битрейт : 768 kBit/s
Качество : Высокий
Добавление ID3-тега : Нет
Утилита сжатия : C:\Program Files\Exact Audio Copy\Flac\flac.exe
Дополнительные параметры : -6 -V -T "ARTIST=%artist%" -T "TITLE=%title%" -T "ALBUM=%albumtitle%" -T "DATE=%year%" -T "TRACKNUMBER=%tracknr%" -T "GENRE=%genre%" -T "COMMENT=%comment%" -T "BAND=%albuminterpret%" -T "ALBUMARTIST=%albuminterpret%" -T "COMPOSER=%composer%" %haslyrics%--tag-from-file=LYRICS="%lyricsfile%"%haslyrics% -T "DISCNUMBER=%cdnumber%" -T "TOTALDISCS=%totalcds%" -T "TOTALTRACKS=%numtracks%" %hascover%--picture="%coverfile%"%hascover% %source% -o %dest%

TOC извлечённого CD Трек | Старт | Длительность | Начальный сектор | Конечный сектор

1 | 0:00.00 | 4:50.00 | 0 | 21749
2 | 4:50.00 | 4:32.60 | 21750 | 42209
3 | 9:22.60 | 4:42.45 | 42210 | 63404
4 | 14:05.30 | 5:08.15 | 63405 | 86519
5 | 19:13.45 | 4:32.60 | 86520 | 106979
6 | 23:46.30 | 3:08.60 | 106980 | 121139
7 | 26:55.15 | 3:42.30 | 121140 | 137819
8 | 30:37.45 | 4:28.15 | 137820 | 157934
9 | 35:05.60 | 4:06.00 | 157935 | 176384
10 | 39:11.60 | 3:19.15 | 176385 | 191324
11 | 42:31.00 | 4:59.60 | 191325 | 213809
12 | 47:30.60 | 3:27.60 | 213810 | 229394
13 | 50:58.45 | 3:46.60 | 229395 | 246404
14 | 54:45.30 | 2:53.32 | 246405 | 259411

Характеристики диапазона извлечения и сообщения об о?ибках

Выбранный диапазон ?мя файла D:\Torrent Lossless\Todd Griffin - 7 Days To The Sabbath - 2015 - 57'40''\Todd Griffin - 7 Days To The Sabbath.wav Пиковый уровень 99.9 %
Скорость извлечения 6.9 X
Качество диапазона 100.0 %
CRC теста 30ACD1A3
CRC копии 30ACD1A3
Копирование... OK

О?ибок не произо?ло

Конец отчёта

- CUETools DB Plugin V2.1.6

[CTDB TOCID: 3FElV_1PUgUoO8e.09KGtqY6UHc-] disk not present in database
Submit result: 3FElV_1PUgUoO8e.09KGtqY6UHc- has been uploaded

==== Контрольная сумма отчёта 2C5C0157DEC36D418AB9C2BC078FC4C9BE6D848AC3BF40B60008BB57A48FD608 ====

foobar2000 1.2.6 / Dynamic Range Meter 1.1.1
log date: 2015-06-26 07:49:24

Analyzed: Todd Griffin / 7 Days To The Sabbath

DR Peak RMS Duration Track

DR5 0.00 dB -7.34 dB 4:50 01-No Love In America
DR6 0.00 dB -7.50 dB 4:33 02-Sundance Song
DR5 0.00 dB -6.78 dB 4:43 03-New Shoes
DR4 0.00 dB -5.44 dB 5:08 04-Man In The Sky
DR6 0.00 dB -8.20 dB 4:33 05-Let Your Love Shine
DR7 0.00 dB -8.61 dB 3:09 06-Must Be The Weather
DR5 0.00 dB -7.11 dB 3:42 07-Wicked Brew
DR5 0.00 dB -7.63 dB 4:28 08-Angels
DR7 0.00 dB -8.90 dB 4:06 09-Almost Cut My Hair
DR5 0.00 dB -6.88 dB 3:19 10-Where The River Flows
DR7 0.00 dB -8.47 dB 5:00 11-Man Child
DR6 0.00 dB -7.06 dB 3:28 12-Understanding
DR6 0.00 dB -6.54 dB 3:47 13-Seven
DR6 0.00 dB -7.74 dB 2:53 14-Every Little Wonder

Number of tracks: 14
Official DR value: DR6

Samplerate: 44100 Hz
Channels: 2
Bits per sample: 16
Bitrate: 993 kbps
Codec: FLAC

[CUETools log; Date: 26.06.2015 7:49:38; Version: 2.1.5]
[CTDB TOCID: 3FElV_1PUgUoO8e.09KGtqY6UHc-] found.
Track | CTDB Status
1 | (1/1) Accurately ripped
2 | (1/1) Accurately ripped
3 | (1/1) Accurately ripped
4 | (1/1) Accurately ripped
5 | (1/1) Accurately ripped
6 | (1/1) Accurately ripped
7 | (1/1) Accurately ripped
8 | (1/1) Accurately ripped
9 | (1/1) Accurately ripped
10 | (1/1) Accurately ripped
11 | (1/1) Accurately ripped
12 | (1/1) Accurately ripped
13 | (1/1) Accurately ripped
14 | (1/1) Accurately ripped
[AccurateRip ID: 001f595c-014a01b4-c40d820e] disk not present in database.

Track Peak [ CRC32 ] [W/O NULL] [ LOG ]
-- 99,9 [30ACD1A3] [2B94784F] CRC32
01 99,9 [D76FA10B] 7C973E2
02 99,9 [8387B265] [93AE2076]
03 99,9 [19B0D3FF] [65C8F36B]
04 99,9 [7BF04164] [22397E63]
05 99,9 [82570388] 96AEB54
06 99,9 [A281FAA2] [4045BB2B]
07 99,9 [2BAEBFC3] 8A04318
08 99,9 [75BD5231] [AB6AB52C]
09 99,9 [678975C6] [131B482B]
10 99,9 [5A3D6C4C] [68EA275A]
11 99,9 [52748935] [16239E9E]
12 99,9 [99B2D473] [267E6005]
13 99,9 [57A4146E] [3B195C9E]
14 99,9 [9C2E8D6C] [746B5AB8]

http://i70.fastpic.ru/big/2015/0628/6b/873e32dbf7e62cd5b3449a29dcb6866b.jpg


DOWNLOAD LINKS:
Buy Premium To Support Me & Get Resumable Support & Max Speed


Links are Interchangeable - No Password - Single Extraction

Todd Griffin - 7 Days To The Sabbath (2015) Fast Download


Ad2

 
 
 
Dear visitor, you went to the site as an unregistered user. We encourage you to register or enter the site under your name.
 
   
 
 (Votes #: 0)