2013Zone For Latest Downloads

 
     
 
Legal Downloads » Music » Verdi - Simon Boccanegra (Daniel Barenboim, Placido Domingo, Anja Harteros) (2010) [BluRay-rip]
Menu
Home Applications
Games Movies
Music TV Shows
Torrents Graphics

Sitemap

RSS
 
Advanced Search
Last News
Site Info
Top Contributors:
  1    supper88 32766
  2    admin 32693
  3    Whisky 10080
  4    Shark_ 8911
  5    creativelivenew 8706
  6    whathesupa 2799
  7    candymypost 840
  8    hvnteam 629
  9    vuong87 3


Articles:
  This Hour: 0
  Today: 0
  This Month: 0
  All Time: 515561


Torrents:
  Today: 0
  Yesterday: 0
  All Time: 156684


Membership:
  Registered Today :0
  This Hour:0
  This Month:0
  Total:14
  Banned:1

{online}
{inform_torrent}
Friend:
We Recomend
Trend
Trend
Ad1

Search In Site

Music : Verdi - Simon Boccanegra (Daniel Barenboim, Placido Domingo, Anja Harteros) (2010) [BluRay-rip]
 
http://i69.fastpic.ru/big/2015/0627/d0/16b2f5ad09dea712bb6d56bf451966d0.jpg

Verdi - Simon Boccanegra (Daniel Barenboim, Plácido Domingo, Anja Harteros) (2010) luRay-rip
Classical | BluRay-rip | AVC | MKV 1920x1080 (16:9) / 6215 kbps / 29,970 fps | 149 min | 8,08GB
Audio: Italian / DTS / 6ch / 48.0 KHz / 24 bits
Sub: Italian, English, French, German, Spanish, Japanese, Korean

"Plácido Domingo‚Ä?s triumphant "return" to his baritone roots (his first debut with the Mexican National Opera, in 1959, was as a baritone), is captured in this stunning DVD of the Teatro alla Scala's 2010 production of Verdi's Simon Boccanegra. Domingo is joined by Anja Harteros, Ferruccio Furlanetto and Fabio Sartori in this Daniel Barenboim conducted performance, directed by Federico Tiezzi."

Cast:
Simon Boccanegra - Plácido Domingo
Jacopo Fiesco - Ferruccio Furlanetto
Paolo Albiani - Massimo Cavalletti
Pietro - Ernesto Panariello
Amelia (Maria) - Anja Harteros
Gabriele Adorno - Fabio Sartori
Orchestra e Coro del Teatro alla Scala di Milano
Direttore - Daniel Barenboim

Video
ID : 1
Format
: AVC
Format/Info
: Advanced Video Codec
Format profile : [email protected]
Format settings, CABAC : Yes
Format settings, ReFrames : 2 frames
Codec ID
: V_MPEG4/ISO/AVC
Duration
: 2h 29mn
Bit rate
: 6 215 Kbps
Width
: 1 920 pixels
Height
: 1 080 pixels
Display aspect ratio : 16:9
Frame rate mode : Constant
Frame rate
: 29.970 fps
Color space
: YUV
Chroma subsampling

: 4:2:0
Bit depth
: 8 bits
Scan type
: Progressive
Bits/(Pixel*Frame)

: 0.100
Stream size
: 6.35 GiB (79%)
Writing library : x264 core 142
Encoding settings: cabac=1 / ref=1 / deblock=1:-1:-1 / analyse=0x3:0 / me=hex / subme=5 / psy=0 / mixed_ref=0 / me_range=16 / chroma_me=1 / trellis=0 / 8x8dct=1 / cqm=0 / deadzone=21,11 / fast_pskip=1 / chroma_qp_offset=0 / threads=8 / lookahead_threads=2 / sliced_threads=0 / nr=0 / decimate=1 / interlaced=0 / bluray_compat=0 / constrained_intra=0 / bframes=2 / b_pyramid=0 / b_adapt=1 / b_bias=0 / direct=1 / weightb=1 / open_gop=0 / weightp=0 / keyint=24 / keyint_min=13 / scenecut=40 / intra_refresh=0 / rc=abr / mbtree=0 / bitrate=6215 / ratetol=1.0 / qcomp=0.60 / qpmin=0 / qpmax=69 / qpstep=4 / ip_ratio=1.40 / pb_ratio=1.30 / aq=1:1.00
Default
: Yes
Forced
: No
Color primaries : BT.709
Transfer characteristics : BT.709
Matrix coefficients

: BT.709
Color range
: Limited

Audio
ID : 2
Format
: DTS
Format/Info
: Digital Theater Systems
Mode
: 16
Format settings, Endianness : Big
Codec ID
: A_DTS
Duration
: 2h 29mn
Bit rate mode : Constant
Bit rate
: 1 509 Kbps
Channel(s)
: 6 channels
Channel positions: Front: L C R, Side: L R, LFE
Sampling rate : 48.0 KHz
Bit depth
: 24 bits
Compression mode : Lossy
Stream size
: 1.57 GiB (19%)
Language
: Italian
Default
: Yes
Forced
: No

Text #1
ID : 3
Format
: VobSub
Codec ID
: S_VOBSUB
Codec ID/Info : The same subtitle format used on DVDs
Language
: Italian
Default
: Yes
Forced
: No

Text #2
ID : 4
Format
: VobSub
Codec ID
: S_VOBSUB
Codec ID/Info : The same subtitle format used on DVDs
Language
: English
Default
: No
Forced
: No

Text #3
ID : 5
Format
: VobSub
Codec ID
: S_VOBSUB
Codec ID/Info : The same subtitle format used on DVDs
Language
: German
Default
: No
Forced
: No

Text #4
ID : 6
Format
: VobSub
Codec ID
: S_VOBSUB
Codec ID/Info : The same subtitle format used on DVDs
Language
: French
Default
: No
Forced
: No

Text #5
ID : 7
Format
: VobSub
Codec ID
: S_VOBSUB
Codec ID/Info : The same subtitle format used on DVDs
Language
: Spanish
Default
: No
Forced
: No

Text #6
ID : 8
Format
: VobSub
Codec ID
: S_VOBSUB
Codec ID/Info : The same subtitle format used on DVDs
Language
: Japanese
Default
: No
Forced
: No

Text #7
ID : 9
Format
: VobSub
Codec ID
: S_VOBSUB
Codec ID/Info : The same subtitle format used on DVDs
Language
: Korean
Default
: No
Forced
: No

Menu
00:00:00.000 : en:Chapter 01
00:04:27.767 : en:Chapter 02
00:09:40.913 : en:Chapter 03
00:11:32.925 : en:Chapter 04
00:14:19.525 : en:Chapter 05
00:20:20.686 : en:Chapter 06
00:24:07.312 : en:Chapter 07
00:27:04.222 : en:Chapter 08
00:31:23.748 : en:Chapter 09
00:33:44.889 : en:Chapter 10
00:37:48.499 : en:Chapter 11
00:40:31.295 : en:Chapter 12
00:45:35.399 : en:Chapter 13
00:47:46.196 : en:Chapter 14
00:49:46.683 : en:Chapter 15
00:53:58.969 : en:Chapter 16
00:59:49.819 : en:Chapter 17
01:03:00.543 : en:Chapter 18
01:04:21.257 : en:Chapter 19
01:11:44.099 : en:Chapter 20
01:12:47.096 : en:Chapter 21
01:15:39.601 : en:Chapter 22
01:20:58.186 : en:Chapter 23
01:25:31.426 : en:Chapter 24
01:28:38.980 : en:Chapter 25
01:30:30.024 : en:Chapter 26
01:33:41.182 : en:Chapter 27
01:36:06.093 : en:Chapter 28
01:39:29.530 : en:Chapter 29
01:40:36.630 : en:Chapter 30
01:46:08.662 : en:Chapter 31
01:49:28.228 : en:Chapter 32
01:53:10.049 : en:Chapter 33
01:54:48.147 : en:Chapter 34
02:00:34.227 : en:Chapter 35
02:07:05.084 : en:Chapter 36
02:10:48.140 : en:Chapter 37
02:13:34.439 : en:Chapter 38
02:26:19.437 : en:Chapter 39

http://i70.fastpic.ru/big/2015/0627/58/1049630ce68d73d5ae1d2c2327b11e58.jpg





DOWNLOAD LINKS:
Buy Premium To Support Me & Get Resumable Support & Max Speed


Links are Interchangeable - No Password - Single Extraction

Verdi - Simon Boccanegra (Daniel Barenboim, Placido Domingo, Anja Harteros) (2010) [BluRay-rip] Fast Download


Ad2

 
 
 
Dear visitor, you went to the site as an unregistered user. We encourage you to register or enter the site under your name.
 
   
 
 (Votes #: 0)