2013Zone For Latest Downloads

 
     
 
Legal Downloads » Music » Miles Davis - Bags' Groove (1954) {2008 Prestige RVG Remasters Series}
Menu
Home Applications
Games Movies
Music TV Shows
Torrents Graphics

Sitemap

RSS
 
Advanced Search
Last News
Site Info
Top Contributors:
  1    supper88 32766
  2    admin 32693
  3    Whisky 10080
  4    Shark_ 8911
  5    creativelivenew 8706
  6    whathesupa 2799
  7    candymypost 840
  8    hvnteam 629
  9    vuong87 3


Articles:
  This Hour: 0
  Today: 0
  This Month: 0
  All Time: 515561


Torrents:
  Today: 0
  Yesterday: 0
  All Time: 156684


Membership:
  Registered Today :0
  This Hour:0
  This Month:0
  Total:14
  Banned:1

{online}
{inform_torrent}
Friend:
We Recomend
Trend
Trend
Ad1

Search In Site

Music : Miles Davis - Bags' Groove (1954) {2008 Prestige RVG Remasters Series}
 

http://i72.fastpic.ru/big/2015/0628/76/7e819b0faf7be80287c147175fff7c76.jpg
Miles Davis - Bags' Groove (1954) {2008 Prestige RVG Remasters Series}
EAC rip (secure mode) | FLAC (tracks)+CUE+LOG -> 241 Mb | MP3 @320 -> 110 Mb
Full Artwork @ 600 dpi (png) -> 168 Mb | 5% repair rar
© 2008 Concord / Prestige | 0888072306455 | Prestige RVG Remasters Series | 24-bit remaster
Jazz / Bop / Hard Bop / Trumpet

"There are a multitude of reasons why Bags' Groove remains a cornerstone of the post-bop genre. Of course there will always be the lure of the urban myth surrounding the Christmas Eve 1954 session -- featuring Thelonious Monk -- which is documented on the two takes of the title track. There are obviously more tangible elements, such as Davis' practically telepathic runs with Sonny Rollins (tenor sax). Or Horace Silver's (piano) uncanny ability to provide a stream of chord progressions that supply a second inconspicuous lead without ever overpowering. Indeed, Davis' choice of former Dizzy Gillespie Orchestra and concurrent Modern Jazz Quartet members Milt Jackson (vibes), Kenny Clarke (drums), and Percy Heath (bass) is obviously well-informed."

http://i72.fastpic.ru/big/2015/0628/6e/be38b77445948e1f94f9653add59ba6e.jpg


Personnel:
Miles Davis - trumpet
Sonny Rollins - tenor saxophone
Horace Silver - piano
Percy Heath - bass
Kenny Clarke - drums
Milt Jackson - vibes
Thelonious Monk - piano

tracklist:
01 - Bags' Groove (take 1)
02 - Bags' Groove (take 2)
03 - Airegin
04 - Oleo
05 - But Not for Me (take 2)
06 - Doxy
07 - But Not for Me (take 1)

Exact Audio Copy V1.0 beta 4 from 7. December 2014

EAC extraction logfile from 14. June 2015, 22:08

Miles Davis / Bags' Groove

Used drive : ATAPI iHAS124 B Adapter: 1 ID: 0

Read mode : Secure
Utilize accurate stream : Yes
Defeat audio cache : Yes
Make use of C2 pointers : No

Read offset correction

: 6
Overread into Lead-In and Lead-Out : No
Fill up missing offset samples with silence : Yes
Delete leading and trailing silent blocks : No
Null samples used in CRC calculations : Yes
Used interface
: Native Win32 interface for Win NT & 2000
Gap handling
: Appended to previous track

Used output format : User Defined Encoder
Selected bitrate : 1024 kBit/s
Quality : High
Add ID3 tag : No
Command line compressor : C:\Program Files (x86)\FLAC Frontend\tools\flac.exe
Additional command line options : -8 -V -T "ARTIST=%artist%" -T "TITLE=%title%" -T "ALBUM=%albumtitle%" -T "DATE=%year%" -T "TRACKNUMBER=%tracknr%" -T "TOTALTRACKS=%numtracks%" -T "GENRE=%genre%" -T "ALBUMARTIST=%albumartist%" -T "ALBUM ARTIST=%albumartist%" -T "COMMENT=EAC Secure Mode, Test & Copy, AccurateRip, FLAC -8" %source%

TOC of the extracted CD Track | Start | Length | Start sector | End sector
--1 | 0:00.00 | 11:16.60 | 0 | 50759 2 | 11:16.60 | 9:24.29 | 50760 | 93088 3 | 20:41.14 | 5:01.51 | 93089 | 115714 4 | 25:42.65 | 5:14.36 | 115715 | 139300 5 | 30:57.26 | 5:45.70 | 139301 | 165245 6 | 36:43.21 | 4:55.48 | 165246 | 187418 7 | 41:38.69 | 4:36.60 | 187419 | 208178

Track 1 Filename D:\_EAC\Miles Davis - Bags' Groove (1954) [FLAC] {RVG Prestige}\01 - Bags' Groove (take 1).wav Pre-gap length 0:00:02.00 Peak level 93.2 %
Extraction speed 4.2 X
Track quality 100.0 %
Test CRC AE8E123D
Copy CRC AE8E123D
Accurately ripped (confidence 36) [D4DB87EC] (AR v2)
Copy OK

Track 2 Filename D:\_EAC\Miles Davis - Bags' Groove (1954) [FLAC] {RVG Prestige}\02 - Bags' Groove (take 2).wav Pre-gap length 0:00:03.03 Peak level 91.7 %
Extraction speed 4.6 X
Track quality 99.9 %
Test CRC F9D18A98
Copy CRC F9D18A98
Accurately ripped (confidence 37) [59B49C4F] (AR v2)
Copy OK

Track 3 Filename D:\_EAC\Miles Davis - Bags' Groove (1954) [FLAC] {RVG Prestige}\03 - Airegin.wav Pre-gap length 0:00:02.22 Peak level 94.7 %
Extraction speed 5.4 X
Track quality 100.0 %
Test CRC AC98354B
Copy CRC AC98354B
Accurately ripped (confidence 37) [ABF3F675] (AR v2)
Copy OK

Track 4 Filename D:\_EAC\Miles Davis - Bags' Groove (1954) [FLAC] {RVG Prestige}\04 - Oleo.wav Pre-gap length 0:00:03.70 Peak level 85.8 %
Extraction speed 5.7 X
Track quality 100.0 %
Test CRC C71B6A24
Copy CRC C71B6A24
Accurately ripped (confidence 37) [C275861E] (AR v2)
Copy OK

Track 5 Filename D:\_EAC\Miles Davis - Bags' Groove (1954) [FLAC] {RVG Prestige}\05 - But Not for Me (take 2).wav Pre-gap length 0:00:02.67 Peak level 91.9 %
Extraction speed 5.1 X
Track quality 99.9 %
Test CRC 7CBFA1AA
Copy CRC 7CBFA1AA
Accurately ripped (confidence 37) [5458DF9A] (AR v2)
Copy OK

Track 6 Filename D:\_EAC\Miles Davis - Bags' Groove (1954) [FLAC] {RVG Prestige}\06 - Doxy.wav Pre-gap length 0:00:03.18 Peak level 93.3 %
Extraction speed 6.3 X
Track quality 100.0 %
Test CRC 006E918C
Copy CRC 006E918C
Accurately ripped (confidence 37) [6EFA7153] (AR v2)
Copy OK

Track 7 Filename D:\_EAC\Miles Davis - Bags' Groove (1954) [FLAC] {RVG Prestige}\07 - But Not for Me (take 1).wav Pre-gap length 0:00:03.38 Peak level 91.6 %
Extraction speed 6.5 X
Track quality 100.0 %
Test CRC D2549198
Copy CRC D2549198
Accurately ripped (confidence 37) [44C3282A] (AR v2)
Copy OK

All tracks accurately ripped

No errors occurred

End of status report

==== Log checksum 61CB6C6957FBEF913F734642A17610676FCF9848302057AD224270DB384169E2 ====

http://i72.fastpic.ru/big/2015/0628/c9/08215441591a810b914a788dcdcb13c9.jpg

http://i71.fastpic.ru/big/2015/0628/6b/4ee6bf12889171ff79a8710b65f4bf6b.jpg

DOWNLOAD LINKS:
Buy Premium To Support Me & Get Resumable Support & Max Speed


Links are Interchangeable - No Password - Single Extraction

Miles Davis - Bags' Groove (1954) {2008 Prestige RVG Remasters Series} Fast Download


Ad2

 
 
 
Dear visitor, you went to the site as an unregistered user. We encourage you to register or enter the site under your name.
 
   
 
 (Votes #: 0)