2013Zone For Latest Downloads

 
     
 
Legal Downloads » Music » VA - Affirmative: The Yes Solo Family Album (1993)
Menu
Home Applications
Games Movies
Music TV Shows
Torrents Graphics

Sitemap

RSS
 
Advanced Search
Last News
Site Info
Top Contributors:
  1    supper88 32766
  2    admin 32693
  3    Whisky 10080
  4    Shark_ 8911
  5    creativelivenew 8706
  6    whathesupa 2799
  7    candymypost 840
  8    hvnteam 629
  9    vuong87 3


Articles:
  This Hour: 0
  Today: 0
  This Month: 30
  All Time: 515561


Torrents:
  Today: 0
  Yesterday: 0
  All Time: 156684


Membership:
  Registered Today :0
  This Hour:0
  This Month:0
  Total:14
  Banned:1

{online}
{inform_torrent}
Friend:
We Recomend
Trend
Trend
Ad1

Search In Site

Music : VA - Affirmative: The Yes Solo Family Album (1993)
 
http://i69.fastpic.ru/big/2015/0627/b7/402df21377c57be4030483a3941864b7.jpg

VA - Affirmative: The Yes Solo Family Album (1993)
EAC | Flac(Image) + Cue + Log & MP3 CBR 320Kbps
Connoisseur Collection, VSOP CD 190 | ~ 463 or 185 Mb | Scans Included
Progressive Rock

"Given the dizzying array of solo albums released by Yes members, a compilation of their best solo work really is a splendid idea. This collection focuses on their halcyon days of the 1970s; and while one might quibble with the track selections, the songs themselves are well-chosen and represent the high points of each member's solo output..."

http://i70.fastpic.ru/big/2015/0627/86/219ea71ac9f3167ec4847641bc463186.jpg

Yes at Wiki | Yes at Discogs | Yes at Allmusic | Yes HomePage

***********

Affirmative: The Yes Solo Family Album at Discogs
VA - Affirmative: The Yes Solo Family Album (1993):

http://i70.fastpic.ru/big/2015/0627/6c/1225eb0d2dd72ae657a77dbb39cf126c.jpg

Tracklist:

01. Rick Wakeman - Catherine Howard (1972)
02. Badger (Tony Kaye) - Wind of Change (1973)
03. Steve Howe - Nature of the Sea (1975)
04. Steve Howe - Ram (1975)
05. Chris Squire - Hold Out Your Hand (1975)
06. Rick Wakeman - Merlin the Magician (1975)
07. Jon Anderson - Ocean Song, Meeting, Sound Out the Galleon (1976)
08. Alan White - Spring - Song of Innoncence (1976)
09. Patrick Moraz - Cachaca (Baiao) (1976)
10. Bill Bruford - Feels Good to Me (1978)
11. Jon and Vangelis - I Hear You Now (1979)
12. Jon Anderson - All In a Matter of Time (1982)
13. Trevor Rabin - Etoile Noir / Eyes of Love (1989)
14. Peter Banks - Dominating Factor (1993)

Exact Audio Copy V0.99 prebeta 4 from 23. January 2008

Отчёт EAC об извлечении, выполненном 5. мая 2009, 16:10

Yes / Affirmative, the Yes solo family album

Дисковод: PIONEER DVD-RW DVR-108 Adapter: 4 ID: 1

Режим чтения : Достоверность
?спользование точного потока : Да
Отключение кэ?а аудио : Да
?спользование указателей C2 : Нет

Коррекция смещения при чтении : 48
Способность читать области Lead-in и Lead-out : Нет
Заполнение пропущенных сэмплов ти?иной : Да
Удаление блоков с ти?иной в начале и конце : Нет
При вычислениях CRC использовались нулевые сэмплы : Да
?нтерфейс : Встроенный Win32-интерфейс для Win NT/2000

Выходной формат : Внутренние WAV-операции
Формат сэмплов : 44.100 Гц; 16 бит; стерео

TOC извлечённого CD Трек | Старт | Длительность | Начальный сектор | Конечный сектор

1 | 0:00.33 | 7:33.37 | 33 | 34044
2 | 7:33.70 | 7:11.33 | 34045 | 66402
3 | 14:45.28 | 3:58.12 | 66403 | 84264
4 | 18:43.40 | 1:55.55 | 84265 | 92944
5 | 20:39.20 | 4:19.25 | 92945 | 112394
6 | 24:58.45 | 8:54.18 | 112395 | 152462
7 | 33:52.63 | 6:40.62 | 152463 | 182524
8 | 40:33.50 | 5:03.60 | 182525 | 205309
9 | 45:37.35 | 4:10.70 | 205310 | 224129
10 | 49:48.30 | 3:51.35 | 224130 | 241489
11 | 53:39.65 | 4:15.65 | 241490 | 260679
12 | 57:55.55 | 3:05.48 | 260680 | 274602
13 | 61:01.28 | 7:29.65 | 274603 | 308342
14 | 68:31.18 | 5:16.15 | 308343 | 332057

Характеристики диапазона извлечения и сообщения об о?ибках

Выбранный диапазон ?мя файла J:\New Torrents\Yes - Affirmative, the Yes solo family album\Yes - Affirmative, the Yes solo family album.wav Копирование прервано

Конец отчёта

--

Exact Audio Copy V0.99 prebeta 4 from 23. January 2008

Отчёт EAC об извлечении, выполненном 5. мая 2009, 16:24

Yes / Affirmative, the Yes solo family album

Дисковод: PIONEER DVD-RW DVR-108 Adapter: 4 ID: 1

Режим чтения : Достоверность
?спользование точного потока : Да
Отключение кэ?а аудио : Да
?спользование указателей C2 : Нет

Коррекция смещения при чтении : 48
Способность читать области Lead-in и Lead-out : Нет
Заполнение пропущенных сэмплов ти?иной : Да
Удаление блоков с ти?иной в начале и конце : Нет
При вычислениях CRC использовались нулевые сэмплы : Да
?нтерфейс : Встроенный Win32-интерфейс для Win NT/2000

Выходной формат : Внутренние WAV-операции
Формат сэмплов : 44.100 Гц; 16 бит; стерео

TOC извлечённого CD Трек | Старт | Длительность | Начальный сектор | Конечный сектор

1 | 0:00.33 | 7:33.37 | 33 | 34044
2 | 7:33.70 | 7:11.33 | 34045 | 66402
3 | 14:45.28 | 3:58.12 | 66403 | 84264
4 | 18:43.40 | 1:55.55 | 84265 | 92944
5 | 20:39.20 | 4:19.25 | 92945 | 112394
6 | 24:58.45 | 8:54.18 | 112395 | 152462
7 | 33:52.63 | 6:40.62 | 152463 | 182524
8 | 40:33.50 | 5:03.60 | 182525 | 205309
9 | 45:37.35 | 4:10.70 | 205310 | 224129
10 | 49:48.30 | 3:51.35 | 224130 | 241489
11 | 53:39.65 | 4:15.65 | 241490 | 260679
12 | 57:55.55 | 3:05.48 | 260680 | 274602
13 | 61:01.28 | 7:29.65 | 274603 | 308342
14 | 68:31.18 | 5:16.15 | 308343 | 332057

Характеристики диапазона извлечения и сообщения об о?ибках

Выбранный диапазон ?мя файла J:\New Torrents\Yes - Affirmative, the Yes solo family album\Yes - Affirmative, the Yes solo family album.wav Пиковый уровень 100.0 %
Качество диапазона 99.9 %
CRC копии 1E7B665C
Копирование... OK

О?ибок не произо?ло


AccurateRip: сводка

Трек 1 точное извлечение (доверие 9) [4E957B0D]
Трек 2 точное извлечение (доверие 9) [38E703EF]
Трек 3 точное извлечение (доверие 9) [FFA81AC6]
Трек 4 точное извлечение (доверие 9) [0BC1E4CF]
Трек 5 точное извлечение (доверие 9) [EC2AE302]
Трек 6 точное извлечение (доверие 9) [4496D564]
Трек 7 точное извлечение (доверие 9) [8DAC62DA]
Трек 8 точное извлечение (доверие 9) [9EF1C4D1]
Трек 9 точное извлечение (доверие 9) [03591905]
Трек 10 точное извлечение (доверие 9) BC9686D
Трек 11 точное извлечение (доверие 9) [96F2AAC1]
Трек 12 точное извлечение (доверие 9) [83960FA4]
Трек 13 точное извлечение (доверие 9) [8150328D]
Трек 14 точное извлечение (доверие 6) [2A2E3D2E]

Все треки извлечены точно

Конец отчёта

foobar2000 1.2.9 / Dynamic Range Meter 1.1.1
log date: 2015-06-25 17:46:58

------
Analyzed: Yes / Affirmative, the Yes solo family album
------

DR Peak RMS Duration Track
------
DR11 -0.61 dB -15.46 dB 7:33 01-Rick Wakeman - Catherine Howard (1972)
DR12 -0.13 dB -13.81 dB 7:11 02-Badger (Tony Kaye) - Wind of Change (1973)
DR13 -0.67 dB -17.13 dB 3:58 03-Steve Howe - Nature of the Sea (1975)
DR11 -0.65 dB -15.40 dB 1:56 04-Steve Howe - Ram (1975)
DR11 -0.38 dB -13.54 dB 4:19 05-Chris Squire - Hold Out Your Hand (1975)
DR12 0.00 dB -15.04 dB 8:54 06-Rick Wakeman - Merlin the Magician (1975)
DR13 -0.62 dB -16.30 dB 6:41 07-Jon Anderson - Ocean Song, Meeting, Sound Out the Galleon (1976)
DR11 -0.80 dB -15.30 dB 5:04 08-Alan White - Spring - Song of Innoncence (1976)
DR11 -0.47 dB -13.44 dB 4:11 09-Patrick Moraz - Cachaca (Baiao) (1976)
DR13 -0.21 dB -16.34 dB 3:51 10-Bill Bruford - Feels Good to Me (1978)
DR13 -0.48 dB -16.30 dB 4:16 11-Jon and Vangelis - I Hear You Now (1979)
DR12 -0.39 dB -14.39 dB 3:06 12-Jon Anderson - All In a Matter of Time (1982)
DR10 -0.02 dB -13.37 dB 7:30 13-Trevor Rabin - Etoile Noir / Eyes of Love (1989)
DR11 -0.68 dB -13.56 dB 5:16 14-Peter Banks - Dominating Factor (1993)
------

Number of tracks: 14
Official DR value: DR12

Samplerate: 44100 Hz
Channels: 2
Bits per sample: 16
Bitrate: 831 kbps
Codec: FLAC

[CUETools log; Date: 25.06.2015 17:46:44; Version: 2.1.4]
Pregap length 00:00:33.
[CTDB TOCID: FRSWZ6uhh55fgX3A1Lir9g7aBH8-] found.
Track | CTDB Status
1 | (6/6) Accurately ripped
2 | (6/6) Accurately ripped
3 | (6/6) Accurately ripped
4 | (6/6) Accurately ripped
5 | (6/6) Accurately ripped
6 | (6/6) Accurately ripped
7 | (6/6) Accurately ripped
8 | (6/6) Accurately ripped
9 | (6/6) Accurately ripped
10 | (6/6) Accurately ripped
11 | (6/6) Accurately ripped
12 | (6/6) Accurately ripped
13 | (6/6) Accurately ripped
14 | (6/6) Accurately ripped
[AccurateRip ID: 00273da8-019c2bef-b6114b0e] found.
Track [ CRC | V2 ] Status
01 [4e957b0d|dc3d61b1] (24+16/42) Accurately ripped
02 [38e703ef|addb5ebf] (24+16/42) Accurately ripped
03 [ffa81ac6|e8e9545c] (23+16/41) Accurately ripped
04 [0bc1e4cf|0c8b7ef6] (24+16/42) Accurately ripped
05 [ec2ae302|2ee424af] (24+16/42) Accurately ripped
06 [4496d564|719c35f8] (24+16/42) Accurately ripped
07 [8dac62da|4e53481d] (24+16/42) Accurately ripped
08 [9ef1c4d1|ccd7c9a0] (24+16/42) Accurately ripped
09 [03591905|105ede89] (24+16/42) Accurately ripped
10 bc9686d|63062067 (24+16/42) Accurately ripped
11 [96f2aac1|ae83049a] (24+16/42) Accurately ripped
12 [83960fa4|b13ed910] (24+16/42) Accurately ripped
13 [8150328d|9bb09b34] (24+15/41) Accurately ripped
14 [2a2e3d2e|0262e688] (18+11/31) Accurately ripped
Offsetted by -659:
01 [af2a84b9] (00/42) No match (V2 was not tested)
02 [c6a84dbe] (00/42) No match (V2 was not tested)
03 [2b8c2b87] (00/41) No match (V2 was not tested)
04 [eb517979] (00/42) No match (V2 was not tested)
05 [38ce5210] (00/42) No match (V2 was not tested)
06 [2b1db424] (00/42) No match (V2 was not tested)
07 [4f4723db] (00/42) No match (V2 was not tested)
08 [54eb8397] (00/42) No match (V2 was not tested)
09 [97bcb5bc] (00/42) No match (V2 was not tested)
10 [89fc088f] (00/42) No match (V2 was not tested)
11 [a5dc178e] (00/42) No match (V2 was not tested)
12 [0e426135] (00/42) No match (V2 was not tested)
13 [3402eebf] (00/41) No match (V2 was not tested)
14 [a59548ee] (00/31) No match (V2 was not tested)

Track Peak [ CRC32 ] [W/O NULL] [ LOG ]
-- 100,0 [1E7B665C] [FDBAE983] CRC32
01 93,2 [D5313789] [C16C2209]
02 98,5 [2C48B684] [55A085F1]
03 92,6 [DAE8740C] [59760A61]
04 92,7 [883C1A96] [595DE3DF]
05 95,6 [F8EDCF5E] [1A27CDAA]
06 100,0 [A559DA14] [D8302FC2]
07 93,1 [FA66C7E9] [027BCB7D]
08 91,1 [C0E7BA78] [67226F05]
09 94,7 [55903ABB] [582E7FF6]
10 97,6 [87CD0A27] [ECB21A8A]
11 94,5 [5A07DBF3] [63024E35]
12 95,5 [F2B9CEE4] [1D21C545]
13 99,7 [DE4C3DDA] [9F52F53C]
14 92,4 [EAE13CB7] [019D8271]

http://i69.fastpic.ru/big/2015/0627/8e/67094b9df366a7a727f548fbe4d3778e.jpg

DOWNLOAD LINKS:
Buy Premium To Support Me & Get Resumable Support & Max Speed


Links are Interchangeable - No Password - Single Extraction

VA - Affirmative: The Yes Solo Family Album (1993) Fast Download


Ad2

 
 
 
Dear visitor, you went to the site as an unregistered user. We encourage you to register or enter the site under your name.
 
   
 
 (Votes #: 0)