2013Zone For Latest Downloads

 
     
 
Legal Downloads » Music » Mahler: Symphonies No 9 & 10 - Paavo Jarvi, Frankfurt Radio Symphony Orchestra (2015)
Menu
Home Applications
Games Movies
Music TV Shows
Torrents Graphics

Sitemap

RSS
 
Advanced Search
Last News
Site Info
Top Contributors:
  1    supper88 32766
  2    admin 32693
  3    Whisky 10080
  4    Shark_ 8911
  5    creativelivenew 8706
  6    whathesupa 2799
  7    candymypost 840
  8    hvnteam 629
  9    vuong87 3


Articles:
  This Hour: 0
  Today: 0
  This Month: 0
  All Time: 515561


Torrents:
  Today: 0
  Yesterday: 0
  All Time: 156684


Membership:
  Registered Today :0
  This Hour:0
  This Month:0
  Total:14
  Banned:1

{online}
{inform_torrent}
Friend:
We Recomend
Trend
Trend
Ad1

Search In Site

Music : Mahler: Symphonies No 9 & 10 - Paavo Jarvi, Frankfurt Radio Symphony Orchestra (2015)
 
http://i72.fastpic.ru/big/2015/0628/88/3db6e620fa57810464dfcd761590c788.jpg

Mahler: Symphonies No 9 & 10 - Paavo Jarvi, Frankfurt Radio Symphony Orchestra (2015)
Classical | Bluray-rip 1080p | Subtitles: German, Korean, Japanese | Run time: 117 mins | 11.3 GB
AVC, MKV 1920x1080 (16:9) 29.97fps, 11900kbps | DTS, 48000Hz, 6ch, 1510kbps

"This has already been internationally acclaimed as one of the most important Mahler projects of the new millennium. Continues with the release of the 9th and 10th Symphonies. Bonus: Introductions to Symphonies Nos. 9 and Introduction to the Mahler cycle with Paavo Järvi."

Tracklisting:

1 Vorspann 00:27
Sinfonie Nr. 9 D-Dur
2 1. Andante comodo 29:15
3 2. Im Tempo eines gemächlichen Ländlers: Etwas täp 16:45
4 3. Rondo-Burleske: Allegro assai. Sehr trotzig 12:57
5 4. Adagio 25:44

6 Applaus & Abspann 01:51
7 Vorspann 00:31
8 Sinfonie Nr. 10 Fis-Dur 28:12
9 Applaus & Abspann 01:50
10 Paavo's Mahler: Introduction to Symphony No. 9 06:49
11 The project (Dokumentation) 11:41

Frankfurt Radio Symphony Orchestra
Paavo Järvi, conductor

* Recorded at the Rheingau Musik Festival, 2009 (Symphony No. 9) and 2008 (Symphony No. 10)

Screeshots

http://i72.fastpic.ru/big/2015/0628/8c/353d245d6286a1e6c20836851176b88c.jpg



Video
ID
: 1
Format : AVC
Format/Info

: Advanced Video Codec
Format profile : [email protected]
Format settings, CABAC : Yes
Format settings, ReFrames : 3 frames
Codec ID : V_MPEG4/ISO/AVC
Duration : 1h 57mn
Bit rate mode : Variable
Bit rate : 11.9 Mbps
Maximum bit rate : 25.0 Mbps
Width : 1 920 pixels
Height : 1 080 pixels
Display aspect ratio : 16:9
Frame rate

: 29.970 fps
Color space

: YUV
Chroma subsampling : 4:2:0
Bit depth: 8 bits
Scan type: Progressive
Bits/(Pixel*Frame) : 0.192
Stream size

: 9.80 GiB (87%)
Writing library : x264 core 142 r2479 dd79a61
Encoding settings : cabac=1 / ref=3 / deblock=1:0:0 / analyse=0x3:0x113 / me=hex / subme=7 / psy=1 / psy_rd=1.00:0.00 / mixed_ref=1 / me_range=16 / chroma_me=1 / trellis=1 / 8x8dct=1 / cqm=0 / deadzone=21,11 / fast_pskip=1 / chroma_qp_offset=-2 / threads=12 / lookahead_threads=2 / sliced_threads=0 / nr=0 / decimate=1 / interlaced=0 / bluray_compat=0 / constrained_intra=0 / bframes=3 / b_pyramid=0 / b_adapt=1 / b_bias=0 / direct=1 / weightb=1 / open_gop=0 / weightp=2 / keyint=300 / keyint_min=30 / scenecut=40 / intra_refresh=0 / rc_lookahead=40 / rc=crf / mbtree=1 / crf=18.0 / qcomp=0.60 / qpmin=0 / qpmax=69 / qpstep=4 / vbv_maxrate=25000 / vbv_bufsize=25000 / crf_max=0.0 / nal_hrd=vbr / filler=0 / ip_ratio=1.40 / aq=1:1.00

Audio
ID
: 2
Format : DTS
Format/Info

: Digital Theater Systems
Codec ID : A_DTS
Duration : 1h 57mn
Bit rate mode : Constant
Bit rate : 1 510 Kbps
Channel(s)

: 6 channels
Channel positions : Front: L C R, Side: L R, LFE
Sampling rate : 48.0 KHz
Bit depth: 24 bits
Compression mode : Lossy
Stream size

: 1.24 GiB (11%)

Menu
00:00:00.000 : en:00:00:00.000
00:00:27.027 : en:00:00:27.027
00:29:43.982 : en:00:29:43.982
00:46:29.487 : en:00:46:29.487
00:59:27.798 : en:00:59:27.798
01:25:13.175 : en:01:25:13.175
01:27:03.919 : en:01:27:03.919
01:27:35.016 : en:01:27:35.016
01:55:48.642 : en:01:55:48.642
01:57:27.774 : en:01:57:27.774
DOWNLOAD LINKS:
Buy Premium To Support Me & Get Resumable Support & Max Speed

Rapidgator.net:
sfp4u.M.S.N.9.10.P.J.F.R.S.O.2015.part01.rar.html
sfp4u.M.S.N.9.10.P.J.F.R.S.O.2015.part02.rar.html
sfp4u.M.S.N.9.10.P.J.F.R.S.O.2015.part03.rar.html
sfp4u.M.S.N.9.10.P.J.F.R.S.O.2015.part04.rar.html
sfp4u.M.S.N.9.10.P.J.F.R.S.O.2015.part05.rar.html
sfp4u.M.S.N.9.10.P.J.F.R.S.O.2015.part06.rar.html
sfp4u.M.S.N.9.10.P.J.F.R.S.O.2015.part07.rar.html
sfp4u.M.S.N.9.10.P.J.F.R.S.O.2015.part08.rar.html
sfp4u.M.S.N.9.10.P.J.F.R.S.O.2015.part09.rar.html
sfp4u.M.S.N.9.10.P.J.F.R.S.O.2015.part10.rar.html
sfp4u.M.S.N.9.10.P.J.F.R.S.O.2015.part11.rar.html
sfp4u.M.S.N.9.10.P.J.F.R.S.O.2015.part12.rar.html
sfp4u.M.S.N.9.10.P.J.F.R.S.O.2015.part13.rar.html
sfp4u.M.S.N.9.10.P.J.F.R.S.O.2015.part14.rar.html
sfp4u.M.S.N.9.10.P.J.F.R.S.O.2015.part15.rar.html

Uploaded.net:
sfp4u.M.S.N.9.10.P.J.F.R.S.O.2015.part01.rar
sfp4u.M.S.N.9.10.P.J.F.R.S.O.2015.part02.rar
sfp4u.M.S.N.9.10.P.J.F.R.S.O.2015.part03.rar
sfp4u.M.S.N.9.10.P.J.F.R.S.O.2015.part04.rar
sfp4u.M.S.N.9.10.P.J.F.R.S.O.2015.part05.rar
sfp4u.M.S.N.9.10.P.J.F.R.S.O.2015.part06.rar
sfp4u.M.S.N.9.10.P.J.F.R.S.O.2015.part07.rar
sfp4u.M.S.N.9.10.P.J.F.R.S.O.2015.part08.rar
sfp4u.M.S.N.9.10.P.J.F.R.S.O.2015.part09.rar
sfp4u.M.S.N.9.10.P.J.F.R.S.O.2015.part10.rar
sfp4u.M.S.N.9.10.P.J.F.R.S.O.2015.part11.rar
sfp4u.M.S.N.9.10.P.J.F.R.S.O.2015.part12.rar
sfp4u.M.S.N.9.10.P.J.F.R.S.O.2015.part13.rar
sfp4u.M.S.N.9.10.P.J.F.R.S.O.2015.part14.rar
sfp4u.M.S.N.9.10.P.J.F.R.S.O.2015.part15.rar

Uploadable.ch:
sfp4u.M.S.N.9.10.P.J.F.R.S.O.2015.part01.rar
sfp4u.M.S.N.9.10.P.J.F.R.S.O.2015.part02.rar
sfp4u.M.S.N.9.10.P.J.F.R.S.O.2015.part03.rar
sfp4u.M.S.N.9.10.P.J.F.R.S.O.2015.part04.rar
sfp4u.M.S.N.9.10.P.J.F.R.S.O.2015.part05.rar
sfp4u.M.S.N.9.10.P.J.F.R.S.O.2015.part06.rar
sfp4u.M.S.N.9.10.P.J.F.R.S.O.2015.part07.rar
sfp4u.M.S.N.9.10.P.J.F.R.S.O.2015.part08.rar
sfp4u.M.S.N.9.10.P.J.F.R.S.O.2015.part09.rar
sfp4u.M.S.N.9.10.P.J.F.R.S.O.2015.part10.rar
sfp4u.M.S.N.9.10.P.J.F.R.S.O.2015.part11.rar
sfp4u.M.S.N.9.10.P.J.F.R.S.O.2015.part12.rar
sfp4u.M.S.N.9.10.P.J.F.R.S.O.2015.part13.rar
sfp4u.M.S.N.9.10.P.J.F.R.S.O.2015.part14.rar
sfp4u.M.S.N.9.10.P.J.F.R.S.O.2015.part15.rar

Links are Interchangeable - No Password - Single Extraction

Mahler: Symphonies No 9 & 10 - Paavo Jarvi, Frankfurt Radio Symphony Orchestra (2015) Fast Download


Ad2

 
 
 
Dear visitor, you went to the site as an unregistered user. We encourage you to register or enter the site under your name.
 
   
 
 (Votes #: 0)