2013Zone For Latest Downloads

 
     
 
Legal Downloads » Music » Etta James - Hickory Dickory Dock (1998)
Menu
Home Applications
Games Movies
Music TV Shows
Torrents Graphics

Sitemap

RSS
 
Advanced Search
Last News
Site Info
Top Contributors:
  1    supper88 32766
  2    admin 32693
  3    Whisky 10080
  4    Shark_ 8911
  5    creativelivenew 8706
  6    whathesupa 2799
  7    candymypost 840
  8    hvnteam 629
  9    vuong87 3


Articles:
  This Hour: 0
  Today: 0
  This Month: 30
  All Time: 515561


Torrents:
  Today: 0
  Yesterday: 0
  All Time: 156684


Membership:
  Registered Today :0
  This Hour:0
  This Month:0
  Total:14
  Banned:1

{online}
{inform_torrent}
Friend:
We Recomend
Trend
Trend
Ad1

Search In Site

Music : Etta James - Hickory Dickory Dock (1998)
 
http://i69.fastpic.ru/big/2015/0628/87/a8d813c7f966ab706d3ade68b6b80d87.jpg

Etta James - Hickory Dickory Dock (1998)
EAC Rip | FLAC (Img) + Cue + Log ~ 312 Mb | MP3 CBR320 ~ 165 Mb
Scans Included (JPG, 300 dpi) | RAR 5% Recovery
Blues, R&B, Soul | Ace Records #CDCHM 680

"UK collection for the soul-blues singer of her recordings made during the 50's for the Modern & Kent labels, features 22 tracks. The singer in her precocious formative years, headed by her 1955 R&B smash "Roll With Me Henry" (aka "The Wallflower"). James' follow-ups included the driving "Good Rockin' Daddy," a bluesy "W-O-M-A-N," and the New Orleans raveup "Tough Lover," which found her backed by the gang at Cosimo's (notably saxman Lee Allen). Even though her tenure at Modern Records only produced a handful of hits, these 22 cuts are delightful artifacts of the belter's earliest days..."

Wiki | Discogs | All Music
***************

http://i71.fastpic.ru/big/2015/0628/a2/be39c134dacdf6d95537d9bdd8a1eba2.jpg

Track List:

01. Hickory Dickory Dock [03:03]
02. W-O-M-A-N [02:44]
03. My One And Only [02:27]
04. I'm A Fool [02:27]
05. Strange Things Happening [02:31]
06. Hey Henry [02:54]
07. I Hope You're Satisfied [03:04]
08. Good Rockin' Daddy [02:24]
09. Sunshine Of Love [02:27]
10. That's All [02:16]
11. Call Me A Fool [02:47]
12. Tears Of Joy [02:29]
13. The Pick-Up [02:23]
14. Market Place [02:53]
15. Tough Lover [02:11]
16. Doin' Something Crazy [03:22]
17. Be My Lovey Dovey [02:03]
18. Nobody Loves You (Like Me) [02:26]
19. You Know What I Mean [03:06]
20. The Wallflower (Dance With Me Henry) [02:58]
21. Every Night [02:21]
22. We're In Love [01:46]

Exact Audio Copy V1.0 beta 3 from 29. August 2011

EAC extraction logfile from 2. November 2014, 14:44

Etta James / Hickory Dickory Dock

Used drive : PLEXTOR DVDR PX-716A Adapter: 3 ID: 0

Read mode : Secure
Utilize accurate stream : Yes
Defeat audio cache : Yes
Make use of C2 pointers : No

Read offset correction

: 30
Overread into Lead-In and Lead-Out : No
Fill up missing offset samples with silence : Yes
Delete leading and trailing silent blocks : No
Null samples used in CRC calculations : Yes
Used interface
: Native Win32 interface for Win NT & 2000

Used output format : User Defined Encoder
Selected bitrate : 1024 kBit/s
Quality : High
Add ID3 tag : No
Command line compressor : C:\Program Files (x86)\Exact Audio Copy\wavpack.exe
Additional command line options : -hlm %source%

TOC of the extracted CD Track | Start | Length | Start sector | End sector
--1 | 0:00.00 | 3:02.28 | 0 | 13677 2 | 3:02.28 | 2:43.56 | 13678 | 25958 3 | 5:46.09 | 2:26.10 | 25959 | 36918 4 | 8:12.19 | 2:26.43 | 36919 | 47911 5 | 10:38.62 | 2:30.22 | 47912 | 59183 6 | 13:09.09 | 2:53.19 | 59184 | 72177 7 | 16:02.28 | 3:03.66 | 72178 | 85968 8 | 19:06.19 | 2:23.16 | 85969 | 96709 9 | 21:29.35 | 2:26.57 | 96710 | 107716
10 | 23:56.17 | 2:15.64 | 107717 | 117905
11 | 26:12.06 | 2:46.05 | 117906 | 130360
12 | 28:58.11 | 2:28.55 | 130361 | 141515
13 | 31:26.66 | 2:22.10 | 141516 | 152175
14 | 33:49.01 | 2:52.41 | 152176 | 165116
15 | 36:41.42 | 2:10.26 | 165117 | 174892
16 | 38:51.68 | 3:21.21 | 174893 | 189988
17 | 42:13.14 | 2:02.25 | 189989 | 199163
18 | 44:15.39 | 2:25.54 | 199164 | 210092
19 | 46:41.18 | 3:05.06 | 210093 | 223973
20 | 49:46.24 | 2:57.33 | 223974 | 237281
21 | 52:43.57 | 2:20.41 | 237282 | 247822
22 | 55:04.23 | 1:45.42 | 247823 | 255739

Range status and errors

Selected range Filename D:\wwphil\Etta James - Hickory Dickory Dock\Etta James - Hickory Dickory Dock.wav Peak level 100.0 %
Extraction speed 3.8 X
Range quality 100.0 %
Test CRC B7C2BD73
Copy CRC B7C2BD73
Copy OK

No errors occurred


AccurateRip summary

Track 1 accurately ripped (confidence 3) [481F857D] (AR v2)
Track 2 accurately ripped (confidence 3) [75F53DB2] (AR v2)
Track 3 accurately ripped (confidence 3) [EE79223E] (AR v2)
Track 4 accurately ripped (confidence 3) [607E02A7] (AR v2)
Track 5 accurately ripped (confidence 3) [2ABDFDB3] (AR v2)
Track 6 accurately ripped (confidence 3) [7FD6CA8F] (AR v2)
Track 7 accurately ripped (confidence 3) [91903433] (AR v2)
Track 8 accurately ripped (confidence 3) [1BDC1E2A] (AR v2)
Track 9 accurately ripped (confidence 3) [3C0EF485] (AR v2)
Track 10 accurately ripped (confidence 3) [5D119BE4] (AR v2)
Track 11 accurately ripped (confidence 3) [7FE6BCBE] (AR v2)
Track 12 accurately ripped (confidence 3) [C8D630AC] (AR v2)
Track 13 accurately ripped (confidence 3) [80EB2556] (AR v2)
Track 14 accurately ripped (confidence 3) [4534F85C] (AR v2)
Track 15 accurately ripped (confidence 3) [F60AC0D0] (AR v2)
Track 16 accurately ripped (confidence 3) F6FBACF (AR v2)
Track 17 accurately ripped (confidence 3) [34EB3844] (AR v2)
Track 18 accurately ripped (confidence 3) [372D7135] (AR v2)
Track 19 accurately ripped (confidence 3) [72BDC2A2] (AR v2)
Track 20 accurately ripped (confidence 3) [6B211673] (AR v2)
Track 21 accurately ripped (confidence 3) [87E7F2F1] (AR v2)
Track 22 accurately ripped (confidence 3) [31BD7C8F] (AR v2)

All tracks accurately ripped

End of status report

==== Log checksum EEEDF17710F7A2981B7AFA265C49C51C5E4474948E02FC34758FE783CDCB1DD9 ====

foobar2000 1.2.6 / Dynamic Range Meter 1.1.1
log date: 2015-06-25 10:45:22

Analyzed: Etta James / Hickory Dickory Dock

DR Peak RMS Duration Track

DR13 -2.25 dB -17.41 dB 3:02 01-Hickory Dickory Dock
DR11 -1.80 dB -15.84 dB 2:44 02-W-O-M-A-N
DR9 -1.80 dB -13.80 dB 2:26 03-My One And Only
DR9 -3.49 dB -15.33 dB 2:27 04-I'm A Fool
DR11 -1.34 dB -14.60 dB 2:30 05-Strange Things Happening
DR13 -1.40 dB -15.41 dB 2:53 06-Hey Henry
DR9 -2.40 dB -14.48 dB 3:04 07-I Hope You're Satisfied
DR12 -0.80 dB -14.75 dB 2:23 08-Good Rockin' Daddy
DR11 -1.40 dB -15.57 dB 2:27 09-Sunshine Of Love
DR14 0.00 dB -15.60 dB 2:16 10-That's All
DR12 -2.93 dB -17.97 dB 2:46 11-Call Me A Fool
DR12 -2.12 dB -17.54 dB 2:29 12-Tears Of Joy
DR10 -4.91 dB -16.74 dB 2:22 13-The Pick-Up
DR12 -2.80 dB -16.75 dB 2:53 14-Market Place
DR13 -0.04 dB -16.22 dB 2:10 15-Tough Lover
DR11 -1.74 dB -14.98 dB 3:21 16-Doin' Something Crazy
DR11 -1.37 dB -16.01 dB 2:02 17-Be My Lovey Dovey
DR10 -3.25 dB -15.23 dB 2:26 18-Nobody Loves You (Like Me)
DR12 -2.19 dB -17.73 dB 3:05 19-You Know What I Mean
DR14 -0.40 dB -16.92 dB 2:57 20-The Wallflower (Dance With Me Henry)
DR10 -3.35 dB -14.70 dB 2:21 21-Every Night
DR11 -1.80 dB -15.23 dB 1:46 22-We're In Love

Number of tracks: 22
Official DR value: DR11

Samplerate: 44100 Hz
Channels: 2
Bits per sample: 16
Bitrate: 664 kbps
Codec: FLAC

[CUETools log; Date: 25.06.2015 10:51:27; Version: 2.1.5]
[CTDB TOCID: Sc7vYeZO.ImmtWC02yBg7kM6Prk-] found.
Track | CTDB Status
1 | (3/3) Accurately ripped
2 | (3/3) Accurately ripped
3 | (3/3) Accurately ripped
4 | (3/3) Accurately ripped
5 | (3/3) Accurately ripped
6 | (3/3) Accurately ripped
7 | (3/3) Accurately ripped
8 | (3/3) Accurately ripped
9 | (3/3) Accurately ripped
10 | (3/3) Accurately ripped
11 | (3/3) Accurately ripped
12 | (3/3) Accurately ripped
13 | (3/3) Accurately ripped
14 | (3/3) Accurately ripped
15 | (3/3) Accurately ripped
16 | (3/3) Accurately ripped
17 | (3/3) Accurately ripped
18 | (3/3) Accurately ripped
19 | (3/3) Accurately ripped
20 | (3/3) Accurately ripped
21 | (3/3) Accurately ripped
22 | (3/3) Accurately ripped
[AccurateRip ID: 002da884-02d7cf29-3d0d5116] found.
Track [ CRC | V2 ] Status
01 [142d7a37|481f857d] (2+4/9) Accurately ripped
02 6a08d24|75f53db2 (2+4/9) Accurately ripped
03 [0d0fe9d8|ee79223e] (2+4/9) Accurately ripped
04 [52cb6ed4|607e02a7] (2+4/9) Accurately ripped
05 [85cfccc0|2abdfdb3] (2+4/9) Accurately ripped
06 [0ad3fd42|7fd6ca8f] (2+4/9) Accurately ripped
07 [d70a674d|91903433] (2+4/9) Accurately ripped
08 [425f838c|1bdc1e2a] (2+4/9) Accurately ripped
09 [a30be846|3c0ef485] (2+4/9) Accurately ripped
10 [9e7f4b6d|5d119be4] (2+4/9) Accurately ripped
11 [7e03729d|7fe6bcbe] (2+4/9) Accurately ripped
12 [2c80348b|c8d630ac] (2+4/9) Accurately ripped
13 [a64343f3|80eb2556] (2+4/9) Accurately ripped
14 [51b6b2bc|4534f85c] (2+4/9) Accurately ripped
15 [15e88e56|f60ac0d0] (2+4/9) Accurately ripped
16 [070bb86a|bf6fbacf] (2+4/9) Accurately ripped
17 [d43ab162|34eb3844] (2+4/9) Accurately ripped
18 [85c9b361|372d7135] (2+4/9) Accurately ripped
19 [625c7795|72bdc2a2] (2+4/9) Accurately ripped
20 [f18441ce|6b211673] (2+4/9) Accurately ripped
21 [8410730a|87e7f2f1] (2+4/9) Accurately ripped
22 [7e231706|31bd7c8f] (2+4/9) Accurately ripped
Offsetted by 10:
01 [68b127db] (0/9) No match (V2 was not tested)
02 [7249fa08] (0/9) No match (V2 was not tested)
03 [cf1b42d2] (0/9) No match (V2 was not tested)
04 [301b6770] (0/9) No match (V2 was not tested)
05 6d0977c (0/9) No match (V2 was not tested)
06 ce967ce (0/9) No match (V2 was not tested)
07 [ef746f41] (0/9) No match (V2 was not tested)
08 [8fe0e46e] (0/9) No match (V2 was not tested)
09 [87410a5a] (0/9) No match (V2 was not tested)
10 [fe989f59] (0/9) No match (V2 was not tested)
11 [a7daa601] (0/9) No match (V2 was not tested)
12 [6b2e57b1] (0/9) No match (V2 was not tested)
13 [36c5f0bb] (0/9) No match (V2 was not tested)
14 [e092d758] (0/9) No match (V2 was not tested)
15 [f6f05614] (0/9) No match (V2 was not tested)
16 [ca824ba0] (0/9) No match (V2 was not tested)
17 [219578ba] (0/9) No match (V2 was not tested)
18 [8d5c6ddf] (0/9) No match (V2 was not tested)
19 [4714033f] (0/9) No match (V2 was not tested)
20 [e9d10f70] (0/9) No match (V2 was not tested)
21 [7abc39ba] (0/9) No match (V2 was not tested)
22 [28a9ccf6] (0/9) No match (V2 was not tested)

Track Peak [ CRC32 ] [W/O NULL] [ LOG ]
-- 100,0 7C2BD73 [96DFEA38] CRC32
01 77,1 [1F580BCD] [8CC4DE1C]
02 81,2 [A673CE3B] [409C84E1]
03 81,2 [5FD5E2AD] [5624FC1C]
04 66,8 [5F0494B7] [61F5C267]
05 85,7 [018E08AD] [F416D231]
06 85,1 [E2CC1C7D] 8C4DC8A
07 75,8 [3C518D97] [7677B58B]
08 91,1 [809F1B90] [8D92B5A6]
09 85,1 [E9B27EE9] [72E80700]
10 100,0 [394EF5B6] [9651AA49]
11 71,3 [0CF5FB0D] [AA929333]
12 78,3 [514A110E] [746A3B54]
13 56,8 [C458A7EC] [0B97D21D]
14 72,4 [58C34672] [0DAB3FB2]
15 99,5 [5A4A1E3A] [58A8C58F]
16 81,8 [3C1135F5] [CA2836B8]
17 85,4 [F3DA719B] [900B130F]
18 68,7 [1234663A] [5A0C2495]
19 77,7 [A68A012D] [04316039]
20 95,5 [9891FA8C] F4054FD
21 67,9 [00194AB3] [91FEC81B]
22 81,2 [C55A4233] [733D4FF5]

http://i69.fastpic.ru/big/2015/0628/03/d43dc401337e75db255e9d47dc38f203.jpg


DOWNLOAD LINKS:
Buy Premium To Support Me & Get Resumable Support & Max Speed


Links are Interchangeable - No Password - Single Extraction

Etta James - Hickory Dickory Dock (1998) Fast Download


Ad2

 
 
 
Dear visitor, you went to the site as an unregistered user. We encourage you to register or enter the site under your name.
 
   
 
 (Votes #: 0)