2013Zone For Latest Downloads

 
     
 
Legal Downloads » Music » Wayne Shorter - Native Dancer (1975) {Columbia} [Re-Up]
Menu
Home Applications
Games Movies
Music TV Shows
Torrents Graphics

Sitemap

RSS
 
Advanced Search
Last News
Site Info
Top Contributors:
  1    supper88 32766
  2    admin 32651
  3    Whisky 10080
  4    Shark_ 8911
  5    creativelivenew 8706
  6    whathesupa 2799
  7    candymypost 840
  8    hvnteam 629
  9    vuong87 3


Articles:
  This Hour: 0
  Today: 0
  This Month: 13
  All Time: 515682


Torrents:
  Today: 0
  Yesterday: 0
  All Time: 156685


Membership:
  Registered Today :0
  This Hour:0
  This Month:0
  Total:14
  Banned:1

{online}
{inform_torrent}
Friend:
We Recomend
Trend
Trend
onlinemovies

Search In Site

ad1

Music : Wayne Shorter - Native Dancer (1975) {Columbia} [Re-Up]
 
http://i71.fastpic.ru/big/2015/0708/d2/f50e813c053843ae1cec8dc1fc0843d2.jpg

Wayne Shorter - Native Dancer (1975) {Columbia}
EAC 0.99pb4 | FLAC Image | Cue+Log | Full Scans 300dpi | 245MB + 5% Recovery
Genre: Latin Jazz,Fusion

"One of Shorter's best-selling albums from the 1970s was Native Dancer, a Brazilian-oriented jazz-fusion masterpiece that boasts Herbie Hancock on acoustic piano and electric keyboards, and employs such Brazilian talent as singer Milton Nascimento (a superstar in Brazil) and percussionist Airto Moreira. Everything on this melodic, consistently lyrical effort is a jewel."

Track List
01. Ponta De Areia 5:14
02. Beauty And The Beast 5:12
03. Tarde 5:46
04. Miracle Of The Fishes 4:46
05. Diana 3:01
06. From The Lonely Afternoons 3:13
07. Ana Maria 5:07
08. Lilia 7:01
09. Joanna's Theme 4:21

musicians
Wayne Shorter - tenor and soprano saxes, piano
Milton Nascimento - acoustic guitar and vocals
Herbie Hancock - piano
Airto Moreira - percussion
Roberto Silva - drums, percussion
Wagner Tiso - organ, electric piano, bass
David Amaro - acoustic guitar
Dave McDaniel- bass
Jay Graydon - bass, guitar

Produced by Jim Price

Exact Audio Copy V0.99 prebeta 4 from 23. January 2008

EAC extraction logfile from 22. July 2009, 23:02

Wayne Shorter / Native Dancer

Used drive : HL-DT-STRW/DVD GCC-4242N Adapter: 1 ID: 0

Read mode : Secure
Utilize accurate stream : Yes
Defeat audio cache : Yes
Make use of C2 pointers : No

Read offset correction

: 102
Overread into Lead-In and Lead-Out : No
Fill up missing offset samples with silence : Yes
Delete leading and trailing silent blocks : No
Null samples used in CRC calculations : Yes
Used interface
: Native Win32 interface for Win NT & 2000

Used output format : Internal WAV Routines
Sample format : 44.100 Hz; 16 Bit; Stereo

TOC of the extracted CD Track | Start | Length | Start sector | End sector
--1 | 0:00.00 | 5:18.12 | 0 | 23861 2 | 5:18.12 | 5:04.50 | 23862 | 46711 3 | 10:22.62 | 5:49.33 | 46712 | 72919 4 | 16:12.20 | 4:48.40 | 72920 | 94559 5 | 21:00.60 | 3:04.20 | 94560 | 108379 6 | 24:05.05 | 3:15.52 | 108380 | 123056 7 | 27:20.57 | 5:10.38 | 123057 | 146344 8 | 32:31.20 | 7:03.35 | 146345 | 178104 9 | 39:34.55 | 4:17.57 | 178105 | 197436

Range status and errors

Selected range Filename C:\_\EAC_Out\Out\Wayne Shorter - Native Dancer\Wayne Shorter - Native Dancer.wav Peak level 79.8 %
Range quality 100.0 %
Copy CRC C5B882E9
Copy OK

No errors occurred


AccurateRip summary

Track 1 accurately ripped (confidence 3) [44A9F82F]
Track 2 accurately ripped (confidence 3) 90F4A80
Track 3 accurately ripped (confidence 3) [A06BDAA0]
Track 4 accurately ripped (confidence 3) [529CD035]
Track 5 accurately ripped (confidence 3) [31046E49]
Track 6 accurately ripped (confidence 3) [33E058D9]
Track 7 accurately ripped (confidence 3) [D104F1F3]
Track 8 accurately ripped (confidence 3) [ED531FE8]
Track 9 accurately ripped (confidence 3) [99A77311]

All tracks accurately ripped

End of status report

Analyzed: Wayne Shorter / Native Dancer

DR Peak RMS Duration Track

DR12 -4.75 dB -20.35 dB 5:18 01-Ponta De Areia
DR12 -1.96 dB -16.54 dB 5:05 02-Beauty And The Beast
DR11 -5.29 dB -20.32 dB 5:49 03-Tarde
DR11 -2.09 dB -15.61 dB 4:49 04-Miracle Of The Fishes
DR11 -5.32 dB -20.64 dB 3:04 05-Diana
DR11 -2.18 dB -16.27 dB 3:16 06-From The Lonely Afternoons
DR12 -3.01 dB -17.57 dB 5:11 07-Ana Maria
DR12 -2.01 dB -17.26 dB 7:03 08-Lilia
DR9 -3.40 dB -19.46 dB 4:18 09-Joanna's Theme

Number of tracks: 9
Official DR value: DR11

Samplerate: 44100 Hz
Channels: 2
Bits per sample: 16
Bitrate: 747 kbps
Codec: FLAC

http://i69.fastpic.ru/big/2015/0708/39/6cb02f44d0df338e661bb6ff632d3a39.jpg

http://i69.fastpic.ru/big/2015/0708/86/1646579698ffc4a333d23d96da04a386.jpg

http://i70.fastpic.ru/big/2015/0708/ef/de79fe1ae8d3d65cd47538b9ab7b40ef.jpg

Rip by barin99


DOWNLOAD LINKS:
Buy Premium To Support Me & Get Resumable Support & Max Speed


Links are Interchangeable - No Password - Single Extraction

 
 
 
Dear visitor, you went to the site as an unregistered user. We encourage you to register or enter the site under your name.
 
   
 
 (Votes #: 0)