2013Zone For Latest Downloads

 
     
 
Legal Downloads » Music » Donovan - Donovan's Greatest Hits (1970)
Menu
Home Applications
Games Movies
Music TV Shows
Torrents Graphics

Sitemap

RSS
 
Advanced Search
Last News
Site Info
Top Contributors:
  1    supper88 32766
  2    admin 32651
  3    Whisky 10080
  4    Shark_ 8911
  5    creativelivenew 8706
  6    whathesupa 2799
  7    candymypost 840
  8    hvnteam 629
  9    vuong87 3


Articles:
  This Hour: 0
  Today: 0
  This Month: 0
  All Time: 515681


Torrents:
  Today: 0
  Yesterday: 0
  All Time: 156685


Membership:
  Registered Today :0
  This Hour:0
  This Month:0
  Total:14
  Banned:1

{online}
{inform_torrent}
Friend:
We Recomend
Trend
Trend
onlinemovies

Search In Site

Music : Donovan - Donovan's Greatest Hits (1970)
 
http://i70.fastpic.ru/big/2015/0708/1c/0e0a3c7a045c6afd87f826ba8ce1db1c.jpg

Donovan - Donovan's Greatest Hits (1970)
EAC | Flac(Image) + Cue + Log & MP3 CBR 320Kbps
1999 | Epic/Legacy, EPC 450601 9 | ~ 317 or 122 Mb | Scans Included
Folk Rock / Folk

"Epic's Greatest Hits may not be a perfect collection -- for instance, it contains re-recordings of his earliest folk songs, "Catch the Wind" and "Colours," not the originals -- but for many casual fans, that may not matter since the remaining nine songs offer an excellent summary of his hit singles..."


Tracklist:

01. Mellow Yellow (Album Version)
02. Colours (Single Version)
03. Hurdy Gurdy Man (Single Version)
04. Catch The Wind (mono)(Single Version)
05. Lalena (Single Version)
06. Epistle To Dippy (Single Version)
07. Sunshine Superman (Album Version)
08. There Is A Mountain (Single Version)
09. Jennifer Juniper (Single Version)
10. Wear Your Love Like Heaven (Single Version)
11. Season Of The Witch (Album Version)

Bonus Track:
12. Atlantis (Single Version)
13. To Susan On The West Coast Waiting (Single Version)
14. Barabajagal (Single Version)
15. Riki Tiki Tavi (Single Version)

EAC extraction logfile from 29. January 2006, 10:47 for CD
Donovan / Donovan's Greatest Hits [Expanded Edition]

Used drive : TOSHIBA DVD-ROM SD-M1612 Adapter: 1 ID: 0
Read mode : Secure with NO C2, accurate stream, disable cache
Read offset correction : -472
Overread into Lead-In and Lead-Out : No

Used output format : C:\Archivos de programa\EAC Prebeta 5\MAC.exe (Monkey's Audio Lossless Encoder) High Lossless Compression

Other options :
Fill up missing offset samples with silence : Yes
Delete leading and trailing silent blocks : No
Installed external ASPI interface

Range status and errors
Selected range
Filename E:\Compartidos\Nueva carpeta\CDImage.wav Peak level 100.0 %
Range quality 100.0 %
CRC E76161F5
Copy OK

No errors occured

End of status report

foobar2000 1.2.9 / Dynamic Range Meter 1.1.1
log date: 2015-07-06 14:01:44

Analyzed: Donovan / Donovan's Greatest Hits [Expanded Edition]

DR Peak RMS Duration Track

DR9 -0.19 dB -10.51 dB 3:41 01-Mellow Yellow
DR11 0.00 dB -12.49 dB 2:45 02-Colours
DR8 0.00 dB -9.57 dB 3:20 03-Hurdy Gurdy Man
DR11 0.00 dB -12.67 dB 2:56 04-Catch The Wind
DR10 0.00 dB -14.43 dB 2:57 05-Lalena
DR9 0.00 dB -10.83 dB 3:11 06-Epistle To Dippy
DR9 0.00 dB -10.44 dB 4:33 07-Sunshine Superman
DR9 0.00 dB -11.07 dB 2:35 08-There Is A Mountain
DR10 0.00 dB -11.64 dB 2:43 09-Jennifer Juniper
DR8 0.00 dB -9.97 dB 2:25 10-Wear Your Love Like Heaven
DR7 -1.00 dB -11.57 dB 4:56 11-Season Of The Witch
DR5 -0.98 dB -8.92 dB 4:59 12-Atlantis
DR11 0.00 dB -12.27 dB 3:13 13-To Susan On The West Coast Waiting
DR9 0.00 dB -11.84 dB 3:19 14-Barabajagal
DR8 0.00 dB -10.41 dB 2:57 15-Riki Tiki Tavi

Number of tracks: 15
Official DR value: DR9

Samplerate: 44100 Hz
Channels: 2
Bits per sample: 16
Bitrate: 843 kbps
Codec: FLAC

[CUETools log; Date: 06.07.2015 14:01:58; Version: 2.1.4]
[CTDB TOCID: 4Dyv.66w51fj2DYB_TNlJV2I5Xk-] found.
Track | CTDB Status
1 | (9/9) Accurately ripped
2 | (9/9) Accurately ripped
3 | (9/9) Accurately ripped
4 | (9/9) Accurately ripped
5 | (9/9) Accurately ripped
6 | (9/9) Accurately ripped
7 | (2/9) Accurately ripped, or (7/9) differs in 12 samples @00:35:52
8 | (9/9) Accurately ripped
9 | (9/9) Accurately ripped
10 | (9/9) Accurately ripped
11 | (9/9) Accurately ripped
12 | (9/9) Accurately ripped
13 | (9/9) Accurately ripped
14 | (9/9) Accurately ripped
15 | (9/9) Accurately ripped
[AccurateRip ID: 001b2946-0135c6cf-d80bd60f] found.
Track [ CRC | V2 ] Status
01 [f1838bc3|23d6730f] (0+0/5) No match
02 [73596920|ee647881] (0+0/5) No match
03 [706cebac|f8c69504] (0+0/5) No match
04 [3c5df948|72b98374] (0+0/5) No match
05 [669b80b0|f91673b0] (0+0/5) No match
06 [2491dfac|0cb31774] (0+0/5) No match
07 [5265e48f|841e0ae1] (0+0/5) No match
08 7114d39|77e04ba1 (0+0/5) No match
09 [5d9abfea|229aaf06] (0+0/5) No match
10 [a61638a8|075a8829] (0+0/5) No match
11 [31d1d9a4|ee8b832f] (0+0/5) No match
12 [db1f0417|93801cd3] (0+0/5) No match
13 [242b9985|443c089b] (0+0/5) No match
14 [d75520e9|6c389a75] (0+0/5) No match
15 [3382ae41|52e6700c] (0+0/4) No match
Offsetted by 48:
01 [d8e8d9e3] (0/5) No match (V2 was not tested)
02 [54b3ee00] (0/5) No match (V2 was not tested)
03 [c5ee156c] (0/5) No match (V2 was not tested)
04 [5257c8e8] (0/5) No match (V2 was not tested)
05 [13a22fe0] (0/5) No match (V2 was not tested)
06 [3ff63b7c] (0/5) No match (V2 was not tested)
07 [6d2458bf] (0/5) No match (V2 was not tested)
08 [1b229e39] (0/5) No match (V2 was not tested)
09 [57873afa] (0/5) No match (V2 was not tested)
10 [9559b168] (0/5) No match (V2 was not tested)
11 [1af8eeb4] (0/5) No match (V2 was not tested)
12 [052260a7] (0/5) No match (V2 was not tested)
13 208b465 (0/5) No match (V2 was not tested)
14 [29acf5b9] (0/5) No match (V2 was not tested)
15 [c2f620e1] (0/4) No match (V2 was not tested)
Offsetted by 647:
01 [05de637d] (3/5) Accurately ripped
02 [fb9832d6] (3/5) Accurately ripped
03 0f49918 (3/5) Accurately ripped
04 [99ea8d3a] (3/5) Accurately ripped
05 [02daef67] (3/5) Accurately ripped
06 [35ca9fe5] (3/5) Accurately ripped
07 [058d0d56] (0/5) No match (V2 was not tested)
08 be56109 (3/5) Accurately ripped
09 65e5007 (3/5) Accurately ripped
10 [ff290444] (3/5) Accurately ripped
11 [7885fae1] (3/5) Accurately ripped
12 [7c16fe6c] (3/5) Accurately ripped
13 [dc5fe91b] (3/5) Accurately ripped
14 [d2950572] (3/5) Accurately ripped
15 [46717ca3] (2/4) Accurately ripped

Track Peak [ CRC32 ] [W/O NULL] [ LOG ]
-- 100,0 [E76161F5] [C397BD64] CRC32
01 97,8 [EFC6AC12] [7059EB56]
02 100,0 [9920DAC4] [7D9ACF4D]
03 99,9 [F00A6AFB] [ECDD2F26]
04 99,9 [64734D56] [F41174E5]
05 99,9 [87A5B81E] [0CA2E014]
06 99,9 [91A08CEC] [9C4A8DF3]
07 99,9 71FAC33 [DD27F300]
08 99,9 [8378AFB5] [CA7BBE55]
09 99,9 [D2EBFBC9] [A03F5A6D]
10 99,9 [8D505E21] [6C87B586]
11 89,1 [7A282679] [33706EC0]
12 89,2 [7B5FEF2C] [791BEE29]
13 99,9 [109195CD] [9231CFE6]
14 99,9 [AD21B243] [09DBFD37]
15 99,9 [6F64CAAC] [7271FF20]

http://i72.fastpic.ru/big/2015/0708/13/a71929ce472c5251191d6927e3685813.jpg

DOWNLOAD LINKS:
Buy Premium To Support Me & Get Resumable Support & Max Speed


Links are Interchangeable - No Password - Single Extraction

 
 
 
Dear visitor, you went to the site as an unregistered user. We encourage you to register or enter the site under your name.
 
   
 
 (Votes #: 0)