2013Zone For Latest Downloads

 
     
 
Legal Downloads » Music » Michael Schenker's Temple Of Rock - Bridge The Gap (2013) [Deluxe Ed.]
Menu
Home Applications
Games Movies
Music TV Shows
Torrents Graphics

Sitemap

RSS
 
Advanced Search
Last News
Site Info
Top Contributors:
  1    supper88 32766
  2    admin 32651
  3    Whisky 10080
  4    Shark_ 8911
  5    creativelivenew 8706
  6    whathesupa 2799
  7    candymypost 840
  8    hvnteam 629
  9    vuong87 3


Articles:
  This Hour: 0
  Today: 0
  This Month: 13
  All Time: 515682


Torrents:
  Today: 0
  Yesterday: 0
  All Time: 156685


Membership:
  Registered Today :0
  This Hour:0
  This Month:0
  Total:14
  Banned:1

{online}
{inform_torrent}
Friend:
We Recomend
Trend
Trend
onlinemovies

Search In Site

ad1

Music : Michael Schenker's Temple Of Rock - Bridge The Gap (2013) [Deluxe Ed.]
 
http://i70.fastpic.ru/big/2015/0708/77/a7ebeef70e838c0d317e2c273c540f77.jpg

Michael Schenker's Temple Of Rock - Bridge The Gap (2013) [Deluxe Ed.]
EAC Rip | FLAC: Image+Cue+Log | 379 Mb | MP3 CBR 320 kbps | 129 Mb | Scans | Time: 49:21
Genre: Hard Rock, Heavy Metal | Label: in-akustik | Cat.№: INAK 9126 DLCD

"MICHAEL SCHENKER'S TEMPLE OF ROCK features legendary German guitarist Michael Schenker alongside vocalist Doogie White, guitarist/keyboardist Wayne Findlay, bassist Francis Buchholz and drummer Herman Rarebell. The CD marks the first time Schenker and fellow ex-SCORPIONS members Buchholz and Rarebell have appeared on the same album since the classic 1979 SCORPIONS LP "Lovedrive"."

Award winning guitar legend Michael Schenker will release a new studio album entitled "Bridge The Gap" on Friday, November 22nd. released byin-akustik, the album features Schenker's Temple of Rock band which consists of ex-Scorpions drummer Herman Rarebell and bassist Francis Buchholz, vocalist Doogie White (ex-Rainbow) and Wayne Findlay (guitar, keyboards).

The new album features 13 hard-hitting, adrenalin fuelled melodic rock 'n' roll songs that showcase Schenker's distinctive and explosive guitar playing, valiantly underpinned by the ferocious rythym section of Rarebell and Buchholz, marking the first time Schenker, Rarebell and Buchholz appeared on the same album since the Scorpions' 1979 Lovedrive.

Scottish vocalist Doogie White, who co-wrote the album with Schenker, soars across every song and stamps his enthusiatic personality with every note and phrase. Wayne Findlay adds another dimension to the dynamic, classic Schenker sound with his Dean 7 string guitar and keyboard orchestrations.

Bridge The Gap is a thunderous, explosive collection of brand new songs steeped in shades of dark and light. Musically and lyrically, the new album shows a re-energized guitarist at the top of his game, surrounded by top drawer musicians.

The album was recorded from January through March 2013 at Kidroom Studios in Germany and was produced by Michael Schenker and Michael Voss, and engineered by Michael Voss.



Track Listing

01. Neptune Rising (00:45)
02. Where The Wild Winds Blow (03:23)
03. Horizons (03:24)
04. Lord Of The Lost And Lonely (04:30)
05. Rock N Roll Symphony (03:36)
06. To Live For The King (04:39)
07. Land Of Thunder (03:42)
08. Temple Of The Holy (03:32)
09. Shine On (03:24)
10. Bridges We Have Burned (04:19)
11. Because You Lied (02:37)
12. Black Moon Rising (04:12)
13. Dance For The Piper (04:00)

Bonus track

14. Faith (vocals Don Dokken) (03:10)

Produced by Michael Schenker & Michael Voss

The Band

* Michael Schenker (ex-Scorpions, UFO) - lead and rhythm guitar
* Doogie White (Rainbow, Yngwie Malmsteen's Rising Force, Praying Mantis, Rata Blanca, Tank) - vocals
* Wayne Findlay - 7string guitar, keyboards
* Franciz Buchholz (ex-Scorpions) - bass
* Herman Rarebell (ex-Scorpions) - drums

Exact Audio Copy V1.0 beta 3 from 29. August 2011

EAC extraction logfile from 12. December 2013, 22:56

MICHAEL SCHENKER'S TEMPLE OF ROCK / Bridge The Gap

Used drive : MATSHITABD-CMB UJ242AS Adapter: 0 ID: 1

Read mode : Secure
Utilize accurate stream : Yes
Defeat audio cache : Yes
Make use of C2 pointers : No

Read offset correction

: 103
Overread into Lead-In and Lead-Out : No
Fill up missing offset samples with silence : Yes
Delete leading and trailing silent blocks : No
Null samples used in CRC calculations : Yes
Used interface
: Installed external ASPI interface

Used output format : User Defined Encoder
Selected bitrate : 1024 kBit/s
Quality : High
Add ID3 tag : Yes
Command line compressor : C:\Program Files (x86)\Exact Audio Copy\Flac\flac.exe
Additional command line options : -V -8 -T "Date=%year%" -T "Genre=%genre%" %source%

TOC of the extracted CD Track | Start | Length | Start sector | End sector
--1 | 0:00.00 | 0:45.66 | 0 | 3440 2 | 0:45.66 | 3:23.43 | 3441 | 18708 3 | 4:09.34 | 3:24.59 | 18709 | 34067 4 | 7:34.18 | 4:30.08 | 34068 | 54325 5 | 12:04.26 | 3:36.26 | 54326 | 70551 6 | 15:40.52 | 4:39.34 | 70552 | 91510 7 | 20:20.11 | 3:42.64 | 91511 | 108224 8 | 24:03.00 | 3:32.56 | 108225 | 124180 9 | 27:35.56 | 3:24.66 | 124181 | 139546
10 | 31:00.47 | 4:18.73 | 139547 | 158969
11 | 35:19.45 | 2:37.50 | 158970 | 170794
12 | 37:57.20 | 4:12.08 | 170795 | 189702
13 | 42:09.28 | 4:00.51 | 189703 | 207753
14 | 46:10.04 | 3:10.59 | 207754 | 222062

Range status and errors

Selected range Filename C:\EACrip\MICHAEL SCHENKER'S TEMPLE OF ROCK - Bridge The Gap.wav Peak level 100.0 %
Extraction speed 4.0 X
Range quality 99.9 %
Test CRC FC7B1FCB
Copy CRC FC7B1FCB
Copy OK

No errors occurred


AccurateRip summary

Track 1 not present in database
Track 2 not present in database
Track 3 not present in database
Track 4 not present in database
Track 5 not present in database
Track 6 not present in database
Track 7 not present in database
Track 8 not present in database
Track 9 not present in database
Track 10 not present in database
Track 11 not present in database
Track 12 not present in database
Track 13 not present in database
Track 14 not present in database

None of the tracks are present in the AccurateRip database

End of status report

==== Log checksum 5E5CF7F1E3751A2904E847CEE9AC318451BB2E090EA56F4A92AB6B3F4169153F ====

Many thanks to the original uploader: dnoz
DOWNLOAD LINKS:
Buy Premium To Support Me & Get Resumable Support & Max Speed


Links are Interchangeable - No Password - Single Extraction

 
 
 
Dear visitor, you went to the site as an unregistered user. We encourage you to register or enter the site under your name.
 
   
 
 (Votes #: 0)