2013Zone For Latest Downloads

 
     
 
Legal Downloads » TV Shows » Arcadia Entertainment - Canada Over the Edge Season 4 (2014)
Menu
Home Applications
Games Movies
Music TV Shows
Torrents Graphics

Sitemap

RSS
 
Advanced Search
Last News
Site Info
Top Contributors:
  1    supper88 32766
  2    admin 32651
  3    Whisky 10080
  4    Shark_ 8911
  5    creativelivenew 8706
  6    whathesupa 2799
  7    candymypost 840
  8    hvnteam 629
  9    vuong87 3


Articles:
  This Hour: 0
  Today: 0
  This Month: 0
  All Time: 515681


Torrents:
  Today: 0
  Yesterday: 0
  All Time: 156685


Membership:
  Registered Today :0
  This Hour:0
  This Month:0
  Total:14
  Banned:1

{online}
{inform_torrent}
Friend:
We Recomend
Trend
Trend
onlinemovies

Search In Site

TV Shows : Arcadia Entertainment - Canada Over the Edge Season 4 (2014)
 
http://i72.fastpic.ru/big/2015/0708/d3/d86d81c327fe0a1bea63ba32995f9ad3.jpg

Arcadia Entertainment - Canada Over the Edge Season 4 (2014)
HDTV | 1280x720 | MKV/x264 @ 2857 Kbps | 13x49mn | Audio: English AC3 448 kbps, 6 channels | Subs: None | 13x1.18 GB
Genre: Documentary

In Canada Over the Edge Season IV, we explore one of the most remote - and rarely seen tracts of land on the planet - the vast, unexplored reaches of Northern Canada.
This expanse of boreal forest, barren landscape, and soaring, ice-covered peaks covers more than 3.9 million square kilometres - representing nearly 40% of Canada.
From Sirmilik National Park at the northern extremity of Baffin Island, to the Northernmost land crossing linking the Yukon territory and Alaska - we follow a perimeter measuring more than 160,000 kilometres of Arctic coast.

From the air, we have the rare opportunity to explore the abundance of awe-inspiring vistas this region has to offer - including icebergs, fjords, endless open tundra, bald-faced rolling hills, fiery fall colours and some of the highest mountain peaks in North America. We also survey the communities that make up this region - from stunning Pond Inlet in the East, to remote Paulutuk - and finally Dawson City and Whitehorse in the West.

On the ground, we reveal the unique cultural, and historical aspects of this region - from residents that have lived here for generations. Northern Canada is home to just over 100,000 people - making it one of the least densely populated regions on the planet. Many residents are of Inuit descent - with family histories stretching back hundreds of years. Others are more recent arrivals - drawn by stories of rich oil fields, endless wilderness - and even gold.

Video
ID
: 1
Format : AVC
Format/Info

: Advanced Video Codec
Format profile : [email protected]
Format settings, CABAC : Yes
Format settings, ReFrames : 5 frames
Codec ID : V_MPEG4/ISO/AVC
Duration : 49mn 59s
Bit rate : 2 857 Kbps
Width : 1 280 pixels
Height : 720 pixels
Display aspect ratio : 16:9
Frame rate

: 29.970 fps
Color space

: YUV
Chroma subsampling : 4:2:0
Bit depth: 8 bits
Scan type: Progressive
Bits/(Pixel*Frame) : 0.103
Stream size

: 1 022 MiB (85%)
Writing library : x264 core 138 r2358 9e941d1
Encoding settings : cabac=1 / ref=5 / deblock=1:-1:-1 / analyse=0x3:0x133 / me=esa / subme=7 / psy=1 / psy_rd=1.00:0.00 / mixed_ref=1 / me_range=24 / chroma_me=1 / trellis=2 / 8x8dct=1 / cqm=0 / deadzone=21,11 / fast_pskip=0 / chroma_qp_offset=-2 / threads=6 / lookahead_threads=1 / sliced_threads=0 / nr=0 / decimate=1 / interlaced=0 / bluray_compat=0 / constrained_intra=0 / bframes=5 / b_pyramid=0 / b_adapt=2 / b_bias=0 / direct=3 / weightb=1 / open_gop=0 / weightp=2 / keyint=300 / keyint_min=29 / scenecut=40 / intra_refresh=0 / rc_lookahead=60 / rc=crf / mbtree=1 / crf=20.0 / qcomp=0.60 / qpmin=10 / qpmax=51 / qpstep=4 / vbv_maxrate=62500 / vbv_bufsize=78125 / crf_max=0.0 / nal_hrd=none / ip_ratio=1.40 / aq=1:1.05
Language : English

Audio
ID
: 2
Format : AC-3
Format/Info

: Audio Coding 3
Mode extension : CM (complete main)
Codec ID : A_AC3
Duration : 49mn 59s
Bit rate mode : Constant
Bit rate : 448 Kbps
Channel(s)

: 6 channels
Channel positions : Front: L C R, Side: L R, LFE
Sampling rate : 48.0 KHz
Bit depth: 16 bits
Compression mode : Lossy
Video delay

: 28ms
Stream size

: 160 MiB (13%)

http://i71.fastpic.ru/big/2015/0708/5b/264470d6d86c587e6b03081b1dcafc5b.jpg


DOWNLOAD LINKS:
Buy Premium To Support Me & Get Resumable Support & Max Speed

Rapidgator.net:
k4hbi.over01.part1.rar.html
k4hbi.over01.part2.rar.html
k4hbi.over01.part3.rar.html
k4hbi.over02.part1.rar.html
k4hbi.over02.part2.rar.html
k4hbi.over02.part3.rar.html
k4hbi.over03.part1.rar.html
k4hbi.over03.part2.rar.html
k4hbi.over03.part3.rar.html
k4hbi.over04.part1.rar.html
k4hbi.over04.part2.rar.html
k4hbi.over04.part3.rar.html
k4hbi.over04.part4.rar.html
k4hbi.over05.part1.rar.html
k4hbi.over05.part2.rar.html
k4hbi.over05.part3.rar.html
k4hbi.over05.part4.rar.html
k4hbi.over06.part1.rar.html
k4hbi.over06.part2.rar.html
k4hbi.over06.part3.rar.html
k4hbi.over06.part4.rar.html
k4hbi.over07.part1.rar.html
k4hbi.over07.part2.rar.html
k4hbi.over07.part3.rar.html
k4hbi.over07.part4.rar.html
k4hbi.over08.part1.rar.html
k4hbi.over08.part2.rar.html
k4hbi.over08.part3.rar.html
k4hbi.over08.part4.rar.html
k4hbi.over09.part1.rar.html
k4hbi.over09.part2.rar.html
k4hbi.over09.part3.rar.html
k4hbi.over10.part1.rar.html
k4hbi.over10.part2.rar.html
k4hbi.over10.part3.rar.html
k4hbi.over11.part1.rar.html
k4hbi.over11.part2.rar.html
k4hbi.over11.part3.rar.html
k4hbi.over12.part1.rar.html
k4hbi.over12.part2.rar.html
k4hbi.over12.part3.rar.html
k4hbi.over12.part4.rar.html
k4hbi.over13.part1.rar.html
k4hbi.over13.part2.rar.html
k4hbi.over13.part3.rar.html
k4hbi.over13.part4.rar.html

Uploaded.net:
k4hbi.over01.part1.rar
k4hbi.over01.part2.rar
k4hbi.over01.part3.rar
k4hbi.over02.part1.rar
k4hbi.over02.part2.rar
k4hbi.over02.part3.rar
k4hbi.over03.part1.rar
k4hbi.over03.part2.rar
k4hbi.over03.part3.rar
k4hbi.over04.part1.rar
k4hbi.over04.part2.rar
k4hbi.over04.part3.rar
k4hbi.over04.part4.rar
k4hbi.over05.part1.rar
k4hbi.over05.part2.rar
k4hbi.over05.part3.rar
k4hbi.over05.part4.rar
k4hbi.over06.part1.rar
k4hbi.over06.part2.rar
k4hbi.over06.part3.rar
k4hbi.over06.part4.rar
k4hbi.over07.part1.rar
k4hbi.over07.part2.rar
k4hbi.over07.part3.rar
k4hbi.over07.part4.rar
k4hbi.over08.part1.rar
k4hbi.over08.part2.rar
k4hbi.over08.part3.rar
k4hbi.over08.part4.rar
k4hbi.over09.part1.rar
k4hbi.over09.part2.rar
k4hbi.over09.part3.rar
k4hbi.over10.part1.rar
k4hbi.over10.part2.rar
k4hbi.over10.part3.rar
k4hbi.over11.part1.rar
k4hbi.over11.part2.rar
k4hbi.over11.part3.rar
k4hbi.over12.part1.rar
k4hbi.over12.part2.rar
k4hbi.over12.part3.rar
k4hbi.over12.part4.rar
k4hbi.over13.part1.rar
k4hbi.over13.part2.rar
k4hbi.over13.part3.rar
k4hbi.over13.part4.rar

Uploadable.ch:
k4hbi.over01.part1.rar
k4hbi.over01.part2.rar
k4hbi.over01.part3.rar
k4hbi.over02.part1.rar
k4hbi.over02.part2.rar
k4hbi.over02.part3.rar
k4hbi.over03.part1.rar
k4hbi.over03.part2.rar
k4hbi.over03.part3.rar
k4hbi.over04.part1.rar
k4hbi.over04.part2.rar
k4hbi.over04.part3.rar
k4hbi.over04.part4.rar
k4hbi.over05.part1.rar
k4hbi.over05.part2.rar
k4hbi.over05.part3.rar
k4hbi.over05.part4.rar
k4hbi.over06.part1.rar
k4hbi.over06.part2.rar
k4hbi.over06.part3.rar
k4hbi.over06.part4.rar
k4hbi.over07.part1.rar
k4hbi.over07.part2.rar
k4hbi.over07.part3.rar
k4hbi.over07.part4.rar
k4hbi.over08.part1.rar
k4hbi.over08.part2.rar
k4hbi.over08.part3.rar
k4hbi.over08.part4.rar
k4hbi.over09.part1.rar
k4hbi.over09.part2.rar
k4hbi.over09.part3.rar
k4hbi.over10.part1.rar
k4hbi.over10.part2.rar
k4hbi.over10.part3.rar
k4hbi.over11.part1.rar
k4hbi.over11.part2.rar
k4hbi.over11.part3.rar
k4hbi.over12.part1.rar
k4hbi.over12.part2.rar
k4hbi.over12.part3.rar
k4hbi.over12.part4.rar
k4hbi.over13.part1.rar
k4hbi.over13.part2.rar
k4hbi.over13.part3.rar
k4hbi.over13.part4.rar

Links are Interchangeable - No Password - Single Extraction

 
 
 
Dear visitor, you went to the site as an unregistered user. We encourage you to register or enter the site under your name.
 
   
 
 (Votes #: 0)