2013Zone For Latest Downloads

 
     
 
Legal Downloads » Music » Various Artists - Swinging Jazz Lovers (1997) [Jazz & Tzaz Magazine #48]
Menu
Home Applications
Games Movies
Music TV Shows
Torrents Graphics

Sitemap

RSS
 
Advanced Search
Last News
Site Info
Top Contributors:
  1    supper88 32766
  2    admin 32651
  3    Whisky 10080
  4    Shark_ 8911
  5    creativelivenew 8706
  6    whathesupa 2799
  7    candymypost 840
  8    hvnteam 629
  9    vuong87 3


Articles:
  This Hour: 0
  Today: 0
  This Month: 0
  All Time: 515681


Torrents:
  Today: 0
  Yesterday: 0
  All Time: 156685


Membership:
  Registered Today :0
  This Hour:0
  This Month:0
  Total:14
  Banned:1

{online}
{inform_torrent}
Friend:
We Recomend
Trend
Trend
onlinemovies

Search In Site

Music : Various Artists - Swinging Jazz Lovers (1997) [Jazz & Tzaz Magazine #48]
 
http://i69.fastpic.ru/big/2015/0708/8b/2a4cd845f6eed83c9d7f61b2743fa18b.jpg

Various Artists - Swinging Jazz Lovers (1997) [Jazz & Tzaz Magazine #48]
Jazz, Swing, Classic Jazz | EAC Rip | FLAC, Tracks+CUE + LOG + Full Artwork-600dpi (JPEG) | 68:37 Min | 413,93 Mb
Label: Verve / PolyGram Records S.A. (Greece) | Released: 1997

"
A Greek-only premium compilation, released with the music magazine 'Jazz & Tzaz' (Issue 48). From the catalogue of Verve Records.
"

http://i69.fastpic.ru/big/2015/0708/8b/2a4cd845f6eed83c9d7f61b2743fa18b.jpg

Various Artists - Swinging Jazz Lovers (1997) [Jazz & Tzaz Magazine #48]
Jazz, Swing, Classic Jazz | EAC Rip | FLAC, Tracks+CUE + LOG + Full Artwork-600dpi (JPEG) | 68:37 Min | 413,93 Mb
Label: Verve / PolyGram Records S.A. (Greece) | Released: 1997

http://i72.fastpic.ru/big/2015/0708/21/93f49c383447f16ef969e749fee40921.jpg

"
A Greek-only premium compilation, released with the music magazine 'Jazz & Tzaz' (Issue 48). From the catalogue of Verve Records.
"


http://i72.fastpic.ru/big/2015/0708/c7/cde424e8f5c23b80799a748a87c773c7.jpg

http://i70.fastpic.ru/big/2015/0708/fc/eb1e61d8617454fc9b06ac23143bc2fc.jpg


Release of this CD: 1997 [CD Verve / Polygram (Greece), Cat.# 553 408-2 / No barcode, Not for sale]
This compilation ℗ & © 1997 PolyGram Records S.A. (Greece)

Compiled By, Liner Notes - Yorgos Haronitis
Cover [Design] - Dimitris Arvanitis


Tracklist:

01. Louis Armstrong - How Long Has This Been Going On? (05:58)
02. Billie Holiday - One For My Baby (05:39)
03. Fred Astaire - Steppin' Out With My Baby (02:24)
04. Anita O'Day - My Funny Valentine (03:37)
05. Count Basie And Joe Williams - My Baby Just Cares For Me (02:27)
06. Shirley Horn - Hit The Road, Jack (03:11)
07. Clarence 'Gatemouth' Brown - Unchained Melody (04:24)
08. Cassandra Wilson - My One And Only Love (06:01)
09. Lucky Peterson - You Shook Me (05:29)
10. Laura Fygi - Good Morning Heartache (04:08)
11. Billy Eckstine Sings With Benny Carter - Summertime (03:55)
12. Blossom Dearie - Once Upon A Summertime (02:45)
13. Abbey Lincoln With Frank Morgan - Ten Cents A Dance (05:25)
14. Betty Carter - Lover Man (Live) (09:15)
15. Tom Harrell With Helen Merrill - Joy Spring (04:00)

Exact Audio Copy V1.0 beta 1 from 15. November 2010

EAC extraction logfile from 7. February 2015, 22:03

Various / Swinging Jazz Lovers (Jazz & Tzaz 48)

Used drive : TSSTcorpCDDVDW SH-224DB Adapter: 1 ID: 0

Read mode : Secure
Utilize accurate stream : Yes
Defeat audio cache : Yes
Make use of C2 pointers : No

Read offset correction

: 6
Overread into Lead-In and Lead-Out : No
Fill up missing offset samples with silence : Yes
Delete leading and trailing silent blocks : No
Null samples used in CRC calculations : Yes
Used interface
: Native Win32 interface for Win NT & 2000
Gap handling
: Appended to previous track

Used output format : User Defined Encoder
Selected bitrate : 896 kBit/s
Quality : High
Add ID3 tag : No
Command line compressor : C:\Program Files\Exact Audio Copy\Flac\flac.exe
Additional command line options : -6 -V -T "ARTIST=%a" -T "TITLE=%t" -T "ALBUM=%g" -T "DATE=%y" -T "TRACKNUMBER=%n" -T "GENRE=%m" -T "COMMENT=%e" %s -o %d

TOC of the extracted CD Track | Start | Length | Start sector | End sector
--1 | 0:00.00 | 5:58.30 | 0 | 26879 2 | 5:58.30 | 5:38.72 | 26880 | 52301 3 | 11:37.27 | 2:24.30 | 52302 | 63131 4 | 14:01.57 | 3:37.00 | 63132 | 79406 5 | 17:38.57 | 2:26.48 | 79407 | 90404 6 | 20:05.30 | 3:11.12 | 90405 | 104741 7 | 23:16.42 | 4:24.15 | 104742 | 124556 8 | 27:40.57 | 6:01.08 | 124557 | 151639 9 | 33:41.65 | 5:29.25 | 151640 | 176339
10 | 39:11.15 | 4:07.67 | 176340 | 194931
11 | 43:19.07 | 3:54.45 | 194932 | 212526
12 | 47:13.52 | 2:44.58 | 212527 | 224884
13 | 49:58.35 | 5:24.57 | 224885 | 249241
14 | 55:23.17 | 9:15.10 | 249242 | 290876
15 | 64:38.27 | 3:59.43 | 290877 | 308844

Track 1 Filename C:\New Folder\01 - Louis Armstrong - How Long Has This Been Going On.wav Pre-gap length 0:00:02.00 Peak level 77.6 %
Extraction speed 2.0 X
Track quality 100.0 %
Test CRC B6C9393F
Copy CRC B6C9393F
Accurately ripped (confidence 1) [6E79AF53]
Copy OK

Track 2 Filename C:\New Folder\02 - Billie Holiday - One For My Baby.wav Pre-gap length 0:00:01.43 Peak level 96.2 %
Extraction speed 2.3 X
Track quality 100.0 %
Test CRC FF34F862
Copy CRC FF34F862
Accurately ripped (confidence 1) [C86D213C]
Copy OK

Track 3 Filename C:\New Folder\03 - Fred Astaire - Steppin' Out With My Baby.wav Pre-gap length 0:00:01.42 Peak level 77.2 %
Extraction speed 2.1 X
Track quality 100.0 %
Test CRC 7F6E9B54
Copy CRC 7F6E9B54
Accurately ripped (confidence 1) [547DA37B]
Copy OK

Track 4 Filename C:\New Folder\04 - Anita O'Day - My Funny Valentine.wav Pre-gap length 0:00:01.42 Peak level 79.0 %
Extraction speed 2.4 X
Track quality 100.0 %
Test CRC F716329A
Copy CRC F716329A
Accurately ripped (confidence 1) [E72D2880]
Copy OK

Track 5 Filename C:\New Folder\05 - Count Basie And Joe Williams - My Baby Just Cares For Me.wav Pre-gap length 0:00:01.45 Peak level 88.5 %
Extraction speed 2.4 X
Track quality 100.0 %
Test CRC CD4DFDDA
Copy CRC CD4DFDDA
Accurately ripped (confidence 1) [452276FE]
Copy OK

Track 6 Filename C:\New Folder\06 - Shirley Horn - Hit The Road, Jack.wav Pre-gap length 0:00:01.43 Peak level 99.2 %
Extraction speed 2.6 X
Track quality 100.0 %
Test CRC 6D5A75CD
Copy CRC 6D5A75CD
Accurately ripped (confidence 1) [822E079C]
Copy OK

Track 7 Filename C:\New Folder\07 - Clarence 'Gatemouth' Brown - Unchained Melody.wav Pre-gap length 0:00:01.42 Peak level 66.5 %
Extraction speed 2.9 X
Track quality 100.0 %
Test CRC 1F24DA52
Copy CRC 1F24DA52
Accurately ripped (confidence 1) [40B690BF]
Copy OK

Track 8 Filename C:\New Folder\08 - Cassandra Wilson - My One And Only Love.wav Pre-gap length 0:00:01.42 Peak level 84.1 %
Extraction speed 3.1 X
Track quality 100.0 %
Test CRC D6CAA732
Copy CRC D6CAA732
Accurately ripped (confidence 1) [13A23B10]
Copy OK

Track 9 Filename C:\New Folder\09 - Lucky Peterson - You Shook Me.wav Pre-gap length 0:00:01.43 Peak level 99.2 %
Extraction speed 3.3 X
Track quality 100.0 %
Test CRC 9D53AAB0
Copy CRC 9D53AAB0
Accurately ripped (confidence 1) [A6CD1525]
Copy OK

Track 10 Filename C:\New Folder\10 - Laura Fygi - Good Morning Heartache.wav Pre-gap length 0:00:01.43 Peak level 72.6 %
Extraction speed 3.3 X
Track quality 100.0 %
Test CRC F51608A3
Copy CRC F51608A3
Accurately ripped (confidence 1) [CDDC1CA9]
Copy OK

Track 11 Filename C:\New Folder\11 - Billy Eckstine Sings With Benny Carter - Summertime.wav Pre-gap length 0:00:01.42 Peak level 77.6 %
Extraction speed 3.4 X
Track quality 100.0 %
Test CRC 67744AAD
Copy CRC 67744AAD
Accurately ripped (confidence 1) [94C0EAB2]
Copy OK

Track 12 Filename C:\New Folder\12 - Blossom Dearie - Once Upon A Summertime.wav Pre-gap length 0:00:01.42 Peak level 46.9 %
Extraction speed 3.3 X
Track quality 100.0 %
Test CRC AB532BFD
Copy CRC AB532BFD
Accurately ripped (confidence 1) [C1300DD9]
Copy OK

Track 13 Filename C:\New Folder\13 - Abbey Lincoln With Frank Morgan - Ten Cents A Dance.wav Pre-gap length 0:00:01.43 Peak level 86.4 %
Extraction speed 3.0 X
Track quality 99.9 %
Test CRC E9E8C01E
Copy CRC E9E8C01E
Accurately ripped (confidence 1) [6072B2DD]
Copy OK

Track 14 Filename C:\New Folder\14 - Betty Carter - Lover Man.wav Pre-gap length 0:00:01.42 Peak level 99.2 %
Extraction speed 4.1 X
Track quality 100.0 %
Test CRC 059F5232
Copy CRC 059F5232
Accurately ripped (confidence 1) [490DE86E]
Copy OK

Track 15 Filename C:\New Folder\15 - Tom Harrell With Helen Merrill - Joy Spring.wav Pre-gap length 0:00:01.42 Peak level 99.2 %
Extraction speed 3.9 X
Track quality 100.0 %
Test CRC 70EEFCFC
Copy CRC 70EEFCFC
Accurately ripped (confidence 1) [317A7173]
Copy OK

All tracks accurately ripped

No errors occurred

End of status report

==== Log checksum 2718D9E9881EC02542EDFEE75E55CE474DEFDF6BA7C7A604CE01E190652ACF34 ====

foobar2000 1.3.7 / Dynamic Range Meter 1.1.1
log date: 2015-07-05 20:25:00

Analyzed: Abbey Lincoln With Frank Morgan / Swinging Jazz Lovers (Jazz & Tzaz 48) (1) Anita O'Day / Swinging Jazz Lovers (Jazz & Tzaz 48) (2) Betty Carter / Swinging Jazz Lovers (Jazz & Tzaz 48) (3) Billie Holiday / Swinging Jazz Lovers (Jazz & Tzaz 48) (4) Billy Eckstine Sings With Benny Carter / Swinging Jazz Lovers (Jazz & Tzaz 48) (5) Blossom Dearie / Swinging Jazz Lovers (Jazz & Tzaz 48) (6) Cassandra Wilson / Swinging Jazz Lovers (Jazz & Tzaz 48) (7) Clarence 'Gatemouth' Brown / Swinging Jazz Lovers (Jazz & Tzaz 48) (8) Count Basie And Joe Williams / Swinging Jazz Lovers (Jazz & Tzaz 48) (9) Fred Astaire / Swinging Jazz Lovers (Jazz & Tzaz 48) (10) Laura Fygi / Swinging Jazz Lovers (Jazz & Tzaz 48) (11) Louis Armstrong / Swinging Jazz Lovers (Jazz & Tzaz 48) (12) Lucky Peterson / Swinging Jazz Lovers (Jazz & Tzaz 48) (13) Shirley Horn / Swinging Jazz Lovers (Jazz & Tzaz 48) (14) Tom Harrell With Helen Merrill / Swinging Jazz Lovers (Jazz & Tzaz 48) (15)

DR Peak RMS Duration Track

DR13 -1.26 dB -18.00 dB 5:25 13-Ten Cents A Dance
DR12 -2.04 dB -20.12 dB 3:37 04-My Funny Valentine
DR15 -0.07 dB -20.08 dB 9:15 14-Lover Man
DR14 -0.34 dB -19.06 dB 5:39 02-One For My Baby
DR13 -2.19 dB -20.32 dB 3:55 11-Summertime
DR11 -6.56 dB -22.40 dB 2:45 12-Once Upon A Summertime
DR12 -1.50 dB -17.69 dB 6:01 08-My One And Only Love
DR12 -3.53 dB -20.94 dB 4:24 07-Unchained Melody
DR12 -1.05 dB -16.48 dB 2:27 05-My Baby Just Cares For Me
DR11 -2.25 dB -15.90 dB 2:24 03-Steppin' Out With My Baby
DR11 -2.78 dB -16.61 dB 4:08 10-Good Morning Heartache
DR16 -2.19 dB -21.10 dB 5:58 01-How Long Has This Been Going On
DR13 -0.07 dB -14.82 dB 5:29 09-You Shook Me
DR13 -0.07 dB -16.75 dB 3:11 06-Hit The Road, Jack
DR14 -0.07 dB -18.30 dB 4:00 15-Joy Spring

Number of tracks: 15
Official DR value: DR13

Samplerate: 44100 Hz
Channels: 2
Bits per sample: 16
Bitrate: 570 kbps
Codec: FLAC

password: BlondStyle
DOWNLOAD LINKS:
Buy Premium To Support Me & Get Resumable Support & Max Speed


Links are Interchangeable - No Password - Single Extraction

 
 
 
Dear visitor, you went to the site as an unregistered user. We encourage you to register or enter the site under your name.
 
   
 
 (Votes #: 0)