2013Zone For Latest Downloads

 
     
 
Legal Downloads » Music » Trygve Seim - Different Rivers (2000) {ECM 1744} [Re-Up]
Menu
Home Applications
Games Movies
Music TV Shows
Torrents Graphics

Sitemap

RSS
 
Advanced Search
Last News
Site Info
Top Contributors:
  1    supper88 32766
  2    admin 32651
  3    Whisky 10080
  4    Shark_ 8911
  5    creativelivenew 8706
  6    whathesupa 2799
  7    candymypost 840
  8    hvnteam 629
  9    vuong87 3


Articles:
  This Hour: 0
  Today: 0
  This Month: 13
  All Time: 515682


Torrents:
  Today: 0
  Yesterday: 0
  All Time: 156685


Membership:
  Registered Today :0
  This Hour:0
  This Month:0
  Total:14
  Banned:1

{online}
{inform_torrent}
Friend:
We Recomend
Trend
Trend
onlinemovies

Search In Site

Music : Trygve Seim - Different Rivers (2000) {ECM 1744} [Re-Up]
 
http://i69.fastpic.ru/big/2015/0708/b1/0bf7ad8a706947a2cdf0eac69bb483b1.jpg

Trygve Seim - Different Rivers (2000) {ECM 1744}
EAC 0.99pb4 | FLAC Image level 6 | Cue+Log | Full Scans 300dpi | 261MB + 5% Recovery
Genre: Jazz

"The Norwegian saxophonist Trygve Seim grew up in the provincial coastal city of Trondheim. It was calm and quiet, there were no crowds and he could hike in the wooded hills, with their trails and camp-sites. He really liked it there. Just released, Seim's first album as a leader - Different Rivers - sounds organized and clean, cold and uncrowded like that. ... Different Rivers is melancholy, lonely, hypnotizing music - harder to escape from than to listen to. Like a fireplace in an ice palace, you get hooked on it; it's almost physical. ... Seim's version of the ECM sound presents a wind-instrument chamber ensemble, a sort of slow-floating, pianissimo little-big band with occasional understated kicks. The shadow of Gil Evans hovers. The hornblowers finesse their personal, breathy, nonsymphonic textures from behind the beat."

Track List
01. Sorrows 6:27
02. Ulrikas Dans 7:49
03. Intangible Waltz 5:47
04. Different Rivers 5:51
05. Bhavana 4:23
06. The Aftermath / African Sunrise 6:16
07. Search Silence 0:50
08. For Edward 5:33
09. Breathe 9:19
10. Between 2:18

musicians
Trygve Seim - tenor and soprano saxophones
Arve Henriksen - trumpet, trumpophone, vocals
Havard Lund - clarinet, bass clarinet
Nils Jansen - bass and sopranino saxophones, contrabass clarinet
Hild Sofie Tafjord - french horn
David Gald - tuba
Stian Carstensen - accordion
Bernt Simen Lund - cello
Morten Hannisdal - cello
Per Oddvar Johansen - drums
Paal Nilssen-Love - drums
Oyvind Braekke - trombone
Sidsel Endresen - recitation

Produced by Trygve Seim

Exact Audio Copy V0.99 prebeta 4 from 23. January 2008

EAC extraction logfile from 20. April 2008, 0:21

Trygve Seim / Different Rivers

Used drive : TSSTcorpCD/DVDW SH-S182M Adapter: 2 ID: 1

Read mode : Secure
Utilize accurate stream : Yes
Defeat audio cache : Yes
Make use of C2 pointers : No

Read offset correction

: 6
Overread into Lead-In and Lead-Out : No
Fill up missing offset samples with silence : Yes
Delete leading and trailing silent blocks : No
Null samples used in CRC calculations : No
Used interface
: Installed external ASPI interface

Used output format : User Defined Encoder
Selected bitrate : 1024 kBit/s
Quality : High
Add ID3 tag : No
Command line compressor : C:\Program Files\Exact Audio Copy\FLAC\FLAC.EXE
Additional command line options : -6 -V -T "ARTIST=%a" -T "TITLE=%t" -T "ALBUM=%g" -T "DATE=%y" -T "TRACKNUMBER=%n" -T "GENRE=%m" -T "COMMENT=%e" %s -o %d

TOC of the extracted CD Track | Start | Length | Start sector | End sector
--1 | 0:00.00 | 6:31.35 | 0 | 29359 2 | 6:31.35 | 7:51.70 | 29360 | 64754 3 | 14:23.30 | 5:54.05 | 64755 | 91309 4 | 20:17.35 | 5:57.67 | 91310 | 118151 5 | 26:15.27 | 4:27.05 | 118152 | 138181 6 | 30:42.32 | 6:16.63 | 138182 | 166444 7 | 36:59.20 | 0:57.32 | 166445 | 170751 8 | 37:56.52 | 5:41.38 | 170752 | 196364 9 | 43:38.15 | 9:22.62 | 196365 | 238576
10 | 53:01.02 | 2:18.48 | 238577 | 248974

Range status and errors

Selected range Filename F:\z\Trygve Seim - Different Rivers.wav Peak level 99.9 %
Range quality 99.9 %
Copy CRC 260AD6BA
Copy OK

No errors occurred


AccurateRip summary

Track 1 accurately ripped (confidence 1) [99278B6B]
Track 2 accurately ripped (confidence 1) [592EC678]
Track 3 accurately ripped (confidence 1) [36963FB3]
Track 4 accurately ripped (confidence 1) [A34C844D]
Track 5 accurately ripped (confidence 1) [2571AA3F]
Track 6 accurately ripped (confidence 1) [24D77F25]
Track 7 accurately ripped (confidence 1) [A5547B5B]
Track 8 accurately ripped (confidence 1) [DCADACBB]
Track 9 accurately ripped (confidence 1) [C1E82748]
Track 10 accurately ripped (confidence 1) [963217B8]

All tracks accurately ripped

End of status report

Analyzed: Trygve Seim / Different Rivers

DR Peak RMS Duration Track

DR11 -0.47 dB -16.09 dB 6:31 01-Sorrows
DR12 0.00 dB -16.96 dB 7:52 02-Ulrikas Dans
DR12 -0.73 dB -18.70 dB 5:54 03-Intangible Waltz
DR15 -2.53 dB -22.11 dB 5:58 04-Different Rivers
DR13 -4.24 dB -23.47 dB 4:27 05-Bhavana
DR13 -0.27 dB -17.93 dB 6:17 06-The Aftermath/African Sunrise
DR19 -2.45 dB -29.64 dB 0:57 07-Search Silence
DR11 -3.98 dB -19.82 dB 5:42 08-For Edvard
DR11 -1.96 dB -18.31 dB 9:23 09-Breathe
DR11 -8.74 dB -24.98 dB 2:19 10-Between

Number of tracks: 10
Official DR value: DR13

Samplerate: 44100 Hz
Channels: 2
Bits per sample: 16
Bitrate: 647 kbps
Codec: FLAC

http://i72.fastpic.ru/big/2015/0708/1b/76cd210aacee1fdaba7ec202266bb91b.jpg

http://i72.fastpic.ru/big/2015/0708/21/20a968f62823a16ec9c173995d861821.jpg

http://i72.fastpic.ru/big/2015/0708/a0/3516f52211d0f7d71d6118dd56231ba0.jpg

Rip by ivoronen


DOWNLOAD LINKS:
Buy Premium To Support Me & Get Resumable Support & Max Speed


Links are Interchangeable - No Password - Single Extraction

 
 
 
Dear visitor, you went to the site as an unregistered user. We encourage you to register or enter the site under your name.
 
   
 
 (Votes #: 0)