2013Zone For Latest Downloads

 
     
 
Legal Downloads » Music » The Jazztet - At Birdhouse (1961) {Argo-Verve 2002 Mini LP 24-bit Remaster}
Menu
Home Applications
Games Movies
Music TV Shows
Torrents Graphics

Sitemap

RSS
 
Advanced Search
Last News
Site Info
Top Contributors:
  1    supper88 32766
  2    admin 32651
  3    Whisky 10080
  4    Shark_ 8911
  5    creativelivenew 8706
  6    whathesupa 2799
  7    candymypost 840
  8    hvnteam 629
  9    vuong87 3


Articles:
  This Hour: 0
  Today: 0
  This Month: 13
  All Time: 515682


Torrents:
  Today: 0
  Yesterday: 0
  All Time: 156685


Membership:
  Registered Today :0
  This Hour:0
  This Month:0
  Total:14
  Banned:1

{online}
{inform_torrent}
Friend:
We Recomend
Trend
Trend
onlinemovies

Search In Site

ad1

Music : The Jazztet - At Birdhouse (1961) {Argo-Verve 2002 Mini LP 24-bit Remaster}
 

http://i69.fastpic.ru/big/2015/0708/87/352aea7974dde0fdd93797fc0e293587.jpg
The Jazztet - At Birdhouse (1961) {Argo-Verve 2002 Mini LP 24-bit Remaster}
EAC rip (secure mode) | FLAC (tracks)+CUE+LOG -> 296 Mb | MP3 @320 -> 96 Mb
Full Artwork @ 300 dpi (jpg) -> 12 Mb | 5% repair rar
© 2002 Argo / Verve | 589 762-2
Jazz / Hard Bop / Post Bop / Trumpet / Saxophone

"The Jazztet were only in existence for a brief time (1959-1962, not counting the later reunions), but with a flurry of recording activity they left a valuable legacy. By the time of they made their fourth album, co-leaders Art Farmer and Benny Golson were the only remaining original members, but the presence of underrated trombonist Tom McIntosh (who is appreciated more for his compositions than his playing ability, since he stopped performing in 1969), Cedar Walton, bassist Thomas Williams, and drummer Albert "Tootie" Heath are a welcome presence. These live performances are from a 1961 engagement at the Birdhouse in Chicago."

http://i71.fastpic.ru/big/2015/0708/5b/9cef3f10762cf2848aebac402010135b.jpg


Personnel:
Art Farmer - trumpet, flügelhorn
Benny Golson - tenor saxophone
Tom McIntosh - trombone
Cedar Walton - piano
Tommy Williams - bass
Albert Heath - drums

tracklist:
01 - Junction
02 - Farmer's Market
03 - Darn That Dream
04 - Shutterbug
05 - 'Round Midnight
06 - November Afternoon

Exact Audio Copy V1.0 beta 6 from 9. April 2015

EAC extraction logfile from 28. June 2015, 7:41

The Jazztet / At Birdhouse

Used drive : ATAPI iHAS124 B Adapter: 2 ID: 0

Read mode : Secure
Utilize accurate stream : Yes
Defeat audio cache : Yes
Make use of C2 pointers : No

Read offset correction

: 6
Overread into Lead-In and Lead-Out : No
Fill up missing offset samples with silence : Yes
Delete leading and trailing silent blocks : No
Null samples used in CRC calculations : Yes
Used interface
: Installed external ASPI interface
Gap handling
: Appended to previous track

Used output format : User Defined Encoder
Selected bitrate : 1024 kBit/s
Quality : High
Add ID3 tag : No
Command line compressor : C:\Program Files (x86)\FLAC Frontend\tools\flac.exe
Additional command line options : -8 -V -T "ARTIST=%artist%" -T "TITLE=%title%" -T "ALBUM=%albumtitle%" -T "DATE=%year%" -T "TRACKNUMBER=%tracknr%" -T "TOTALTRACKS=%numtracks%" -T "GENRE=%genre%" -T "ALBUMARTIST=%albumartist%" -T "ALBUM ARTIST=%albumartist%" -T "COMMENT=EAC Secure Mode, Test & Copy, AccurateRip, FLAC -8" %source%

TOC of the extracted CD Track | Start | Length | Start sector | End sector
--1 | 0:00.00 | 5:54.38 | 0 | 26587 2 | 5:54.38 | 8:36.64 | 26588 | 65351 3 | 14:31.27 | 4:28.53 | 65352 | 85504 4 | 19:00.05 | 4:50.54 | 85505 | 107308 5 | 23:50.59 | 10:12.73 | 107309 | 153281 6 | 34:03.57 | 6:16.10 | 153282 | 181491

Track 1 Filename D:\_EAC\The Jazztet - At Birdhouse (1961) [FLAC] {Argo-Verve 2002 Mini LP 24-bit Remaster}\01 - Junction.wav Pre-gap length 0:00:02.00 Peak level 94.0 %
Extraction speed 4.1 X
Track quality 100.0 %
Test CRC EE05C35E
Copy CRC EE05C35E
Accurately ripped (confidence 3) [8CDCBB09] (AR v2)
Copy OK

Track 2 Filename D:\_EAC\The Jazztet - At Birdhouse (1961) [FLAC] {Argo-Verve 2002 Mini LP 24-bit Remaster}\02 - Farmer's Market.wav Pre-gap length 0:00:03.62 Peak level 98.1 %
Extraction speed 5.0 X
Track quality 100.0 %
Test CRC 1E30CFF9
Copy CRC 1E30CFF9
Accurately ripped (confidence 3) [5B7DDA6F] (AR v2)
Copy OK

Track 3 Filename D:\_EAC\The Jazztet - At Birdhouse (1961) [FLAC] {Argo-Verve 2002 Mini LP 24-bit Remaster}\03 - Darn That Dream.wav Pre-gap length 0:00:02.66 Peak level 89.6 %
Extraction speed 5.2 X
Track quality 100.0 %
Test CRC 51641370
Copy CRC 51641370
Accurately ripped (confidence 3) [A6604608] (AR v2)
Copy OK

Track 4 Filename D:\_EAC\The Jazztet - At Birdhouse (1961) [FLAC] {Argo-Verve 2002 Mini LP 24-bit Remaster}\04 - Shutterbug.wav Pre-gap length 0:00:04.49 Peak level 100.0 %
Extraction speed 5.5 X
Track quality 100.0 %
Test CRC 04A4DE50
Copy CRC 04A4DE50
Accurately ripped (confidence 3) [965D907A] (AR v2)
Copy OK

Track 5 Filename D:\_EAC\The Jazztet - At Birdhouse (1961) [FLAC] {Argo-Verve 2002 Mini LP 24-bit Remaster}\05 - 'Round Midnight.wav Pre-gap length 0:00:02.54 Peak level 92.6 %
Extraction speed 6.4 X
Track quality 100.0 %
Test CRC 4C6EDB0A
Copy CRC 4C6EDB0A
Accurately ripped (confidence 3) [472CD043] (AR v2)
Copy OK

Track 6 Filename D:\_EAC\The Jazztet - At Birdhouse (1961) [FLAC] {Argo-Verve 2002 Mini LP 24-bit Remaster}\06 - November Afternoon.wav Pre-gap length 0:00:02.46 Peak level 99.7 %
Extraction speed 5.7 X
Track quality 99.9 %
Test CRC A6A4AFE0
Copy CRC A6A4AFE0
Accurately ripped (confidence 3) [E5176CFD] (AR v2)
Copy OK

All tracks accurately ripped

No errors occurred

End of status report

==== Log checksum E7A801F78BA46C2766407467D561FF3C0C51E91B6C48F9D6B13517A616487FCA ====

http://i72.fastpic.ru/big/2015/0708/4c/08d73958f0f8efc730783db6dd2bcb4c.jpg

http://i70.fastpic.ru/big/2015/0708/06/769bf667966915ff667bc505a38d1106.jpg


DOWNLOAD LINKS:
Buy Premium To Support Me & Get Resumable Support & Max Speed


Links are Interchangeable - No Password - Single Extraction

 
 
 
Dear visitor, you went to the site as an unregistered user. We encourage you to register or enter the site under your name.
 
   
 
 (Votes #: 0)