2013Zone For Latest Downloads

 
     
 
Legal Downloads » TV Shows » National Geographic - Real Angry Birds (2015)
Menu
Home Applications
Games Movies
Music TV Shows
Torrents Graphics

Sitemap

RSS
 
Advanced Search
Last News
Site Info
Top Contributors:
  1    supper88 32766
  2    admin 32651
  3    Whisky 10080
  4    Shark_ 8911
  5    creativelivenew 8706
  6    whathesupa 2799
  7    candymypost 840
  8    hvnteam 629
  9    vuong87 3


Articles:
  This Hour: 0
  Today: 0
  This Month: 0
  All Time: 515681


Torrents:
  Today: 0
  Yesterday: 0
  All Time: 156685


Membership:
  Registered Today :0
  This Hour:0
  This Month:0
  Total:14
  Banned:1

{online}
{inform_torrent}
Friend:
We Recomend
Trend
Trend
onlinemovies

Search In Site

TV Shows : National Geographic - Real Angry Birds (2015)
 

http://i71.fastpic.ru/big/2015/0708/9a/0501a58102323f9d7e11e7123644589a.jpg
National Geographic - Real Angry Birds (2015)
HDTV | 1280x720 | .MKV/AVC @ 3876 Kbps | 43mn 33s | Audio: English AC3 192 kbps, 2 channels | Subs: None | 1.26 GiB
Genre: Documentary

"The world is full of angry birds. Some lock talons over food while others wrestle for mates. For birds, anger and aggression are key to survival."

General
Unique ID
: 218746198342064227737779988699304505031 (0xA490FC409ABAC652B51D73F7E5A12EC7)
Complete name : Real.Angry.Birds.mkv
Format
: Matroska
Format version : Version 4 / Version 2
File size
: 1.26 GiB
Duration
: 43mn 33s
Overall bit rate : 4 151 Kbps

Video
ID : 1
Format
: AVC
Format/Info
: Advanced Video Codec
Format profile : [email protected]
Format settings, CABAC : Yes
Format settings, ReFrames : 5 frames
Codec ID
: V_MPEG4/ISO/AVC
Duration
: 43mn 33s
Bit rate
: 3 876 Kbps
Width
: 1 280 pixels
Height
: 720 pixels
Display aspect ratio : 16:9
Frame rate
: 25.000 fps
Color space
: YUV
Chroma subsampling

: 4:2:0
Bit depth
: 8 bits
Scan type
: Progressive
Bits/(Pixel*Frame)

: 0.168
Stream size
: 1.18 GiB (93%)
Title
: Real.Angry.Birds.720p.HDTV.x264-ASCENDANCE
Writing library : x264 core 146 r2538 121396c
Encoding settings: cabac=1 / ref=5 / deblock=1:0:0 / analyse=0x3:0x113 / me=umh / subme=8 / psy=1 / psy_rd=1.00:0.00 / mixed_ref=1 / me_range=16 / chroma_me=1 / trellis=1 / 8x8dct=1 / cqm=0 / deadzone=21,11 / fast_pskip=1 / chroma_qp_offset=-2 / threads=12 / lookahead_threads=2 / sliced_threads=0 / nr=0 / decimate=1 / interlaced=0 / bluray_compat=0 / constrained_intra=0 / bframes=3 / b_pyramid=2 / b_adapt=2 / b_bias=0 / direct=3 / weightb=1 / open_gop=0 / weightp=2 / keyint=250 / keyint_min=25 / scenecut=40 / intra_refresh=0 / rc_lookahead=50 / rc=crf / mbtree=1 / crf=20.0 / qcomp=0.60 / qpmin=0 / qpmax=69 / qpstep=4 / ip_ratio=1.40 / aq=1:1.00
Language
: English
Default
: Yes
Forced
: No

Audio
ID : 2
Format
: AC-3
Format/Info
: Audio Coding 3
Mode extension : CM (complete main)
Format settings, Endianness : Big
Codec ID
: A_AC3
Duration
: 43mn 33s
Bit rate mode : Constant
Bit rate
: 192 Kbps
Channel(s)
: 2 channels
Channel positions: Front: L R
Sampling rate : 48.0 KHz
Bit depth
: 16 bits
Compression mode : Lossy
Stream size
: 59.8 MiB (5%)
Language
: English
Default
: Yes
Forced
: No

Screenshots:

http://i72.fastpic.ru/big/2015/0708/84/d89c6222e4abd0c7cf6ad541c3733484.jpg

http://i72.fastpic.ru/big/2015/0708/97/47eae7b8dd7df0db7c45992a37e4a297.jpg

http://i70.fastpic.ru/big/2015/0708/e8/19bfad3d358e5daee1940bf20b4e9ee8.jpg

http://i70.fastpic.ru/big/2015/0708/75/b17c362f8e3cdbd6d1f0df5f7dc35c75.jpg


DOWNLOAD LINKS:
Buy Premium To Support Me & Get Resumable Support & Max Speed


Links are Interchangeable - No Password - Single Extraction

 
 
 
Dear visitor, you went to the site as an unregistered user. We encourage you to register or enter the site under your name.
 
   
 
 (Votes #: 0)