2013Zone For Latest Downloads

 
     
 
Legal Downloads » Music » Remi Geniet - J.S.Bach - Partita No.4, Caprice, Suite Anglaise No.1, Toccata en do mineur (2015) {Mirare}
Menu
Home Applications
Games Movies
Music TV Shows
Torrents Graphics

Sitemap

RSS
 
Advanced Search
Last News
Site Info
Top Contributors:
  1    supper88 32766
  2    admin 32651
  3    Whisky 10080
  4    Shark_ 8911
  5    creativelivenew 8706
  6    whathesupa 2799
  7    candymypost 840
  8    hvnteam 629
  9    vuong87 3


Articles:
  This Hour: 0
  Today: 0
  This Month: 0
  All Time: 515681


Torrents:
  Today: 0
  Yesterday: 0
  All Time: 156685


Membership:
  Registered Today :0
  This Hour:0
  This Month:0
  Total:14
  Banned:1

{online}
{inform_torrent}
Friend:
We Recomend
Trend
Trend
onlinemovies

Search In Site

Music : Remi Geniet - J.S.Bach - Partita No.4, Caprice, Suite Anglaise No.1, Toccata en do mineur (2015) {Mirare}
 

http://i70.fastpic.ru/big/2015/0708/79/b8ee27c22a894ec514424399eb845e79.jpg
Remi Geniet - J.S.Bach - Partita No.4, Caprice, Suite Anglaise No.1, Toccata en do mineur (2015) {Mirare}
EAC rip (secure mode) | FLAC (tracks)+CUE+LOG -> 300 Mb | MP3 @320 -> 188 Mb
Full Artwork @ 300 dpi (png) -> 64 Mb | 5% repair rar
© 2014, 2015 Mirare / MIR 268
Classical / Baroque / Piano Solo

"Only 21 years-old when this recording was made, Rémi Geniet offers us a fascinating portrait of Bach on the piano. From the virtuosity of the early works like the Toccata to the supreme mastery of the dance suites (Partita and English Suite), the drama and brio of Bach's keyboard music can vie with that of operas or concertos. Rémi Geniet was one of the last students of the great pianist Brigitte Engerer and is now under the guidance of Prof. Evgeni Koroliov in Hamburg. At the age of 20, he was awarded the second prize of the Queen Elisabeth 2013 International Piano Competition in Belgium. This debut recording has already been distinguished by a Diapason d'Or by the french classical music magazine Diapason."

http://i69.fastpic.ru/big/2015/0708/09/79e2af864754f4879cd1d0d689310009.jpg

"Rémi Geniet propose avec ce programme un portrait en raccourci de Bach au clavier et de son génial esprit de synthèse stylistique ; de la virtuosité des œuvres de jeunesse, comme la Toccata, jusqu'aux suites de danses (Partita et Suites anglaises), la vitalité à la fois mélodique, harmonique et contrapuntique de l'écriture, sa liberté aussi, ne peuvent que susciter respect et admiration. Le jeune pianiste se souvient avoir été, dès la petite enfance, particulièrement sensible à Bach. Porté par un instinct musical sans faille - style, phrasé, parfaite articulation et musicalité semblant couler de source - qui s'appuie sur un jeu clair, tour à tour puissant ou tout en finesse, il aborde le compositeur avec une sûreté sereine propre à la jeunesse mais toujours avec la sobriété des grands interprètes. « Aux âmes bien nées, la valeur n'attend point le nombre des années » ! Rémi Geniet est de celles-là, tant sa maturité, son intelligence musicale, son engagement, son aisance et sa maîtrise impressionnent. Geniet évite soigneusement de faire du Gould-bis, du Richter-bis, du qui-que-ce-soit-bis pour dérouler son propre langage, à la fois sensuel et rigoureux, pianistique mais point pseudo-romantique. Voilà un Bach tout autant net, précis, que parfaitement construit et juste dans sa pulsation, toujours conduit avec souplesse dans sa complexe globalité où se répondent en un dosage parfaitement équilibré les deux mains qui semblent ne faire qu'une. Si le compositeur intimide, ce très jeune talent en impose aussi, à sa manière. Accueillons-le dans le monde des futurs très grands !"


http://i69.fastpic.ru/big/2015/0708/7e/0f54fb8c199613d79d1c1fabcfd0427e.jpg


Personnel: Rémi Geniet - piano

tracklist:
01 - Partita no.4 BWV 828 - Ouverture
02 - Partita no.4 BWV 828 - Allemande
03 - Partita no.4 BWV 828 - Courante
04 - Partita no.4 BWV 828 - Aria
05 - Partita no.4 BWV 828 - Sarabande
06 - Partita no.4 BWV 828 - Menuet
07 - Partita no.4 BWV 828 - Gigue
08 - Capriccio BWV 992 - Adagio
09 - Capriccio BWV 992 - Andante
10 - Capriccio BWV 992 - Adagiosissimo
11 - Capriccio BWV 992 - Un poco largo
12 - Capriccio BWV 992 - Aria di Postiglione
13 - Capriccio BWV 992 - Fuga
14 - Suite no.1 BWV 806 - Prelude
15 - Suite no.1 BWV 806 - Allemande
16 - Suite no.1 BWV 806 - Courantes I & II
17 - Suite no.1 BWV 806 - Sarabande
18 - Suite no.1 BWV 806 - Bourees I & II
19 - Suite no.1 BWV 806 - Gigue
20 - Toccata en do mineur BWV 911

Exact Audio Copy V1.0 beta 6 from 9. April 2015

EAC extraction logfile from 4. July 2015, 19:48

Remi Geniet / J.S.Bach - Partita No.4, Caprice, Suite Anglaise No.1, Toccata en do min

Used drive : ATAPI iHBS112 2 Adapter: 1 ID: 0

Read mode : Secure
Utilize accurate stream : Yes
Defeat audio cache : Yes
Make use of C2 pointers : No

Read offset correction

: 6
Overread into Lead-In and Lead-Out : No
Fill up missing offset samples with silence : Yes
Delete leading and trailing silent blocks : No
Null samples used in CRC calculations : Yes
Used interface
: Native Win32 interface for Win NT & 2000
Gap handling
: Appended to previous track

Used output format : User Defined Encoder
Selected bitrate : 1024 kBit/s
Quality : High
Add ID3 tag : No
Command line compressor : C:\Program Files\Exact Audio Copy\Flac\flac.exe
Additional command line options : -8 -V -T "ARTIST=%artist%" -T "TITLE=%title%" -T "ALBUM=%albumtitle%" -T "DATE=%year%" -T "TRACKNUMBER=%tracknr%" -T "TOTALTRACKS=%numtracks%" -T "GENRE=%genre%" -T "ALBUMARTIST=%albumartist%" -T "ALBUM ARTIST=%albumartist%" -T "COMPOSER=%composer%" -T "PERFORMER=%albuminterpret%" -T "DISCNUMBER=%cdnumber%" -T "TOTALDISCS=%totalcds%" -T "COMMENT=EAC Secure Mode, Test & Copy, AccurateRip, FLAC -8" %source%

TOC of the extracted CD Track | Start | Length | Start sector | End sector
--1 | 0:00.00 | 6:41.62 | 0 | 30136 2 | 6:41.62 | 9:52.55 | 30137 | 74591 3 | 16:34.42 | 3:15.40 | 74592 | 89256 4 | 19:50.07 | 2:07.71 | 89257 | 98852 5 | 21:58.03 | 6:08.12 | 98853 | 126464 6 | 28:06.15 | 1:34.47 | 126465 | 133561 7 | 29:40.62 | 3:28.33 | 133562 | 149194 8 | 33:09.20 | 2:05.39 | 149195 | 158608 9 | 35:14.59 | 1:40.19 | 158609 | 166127
10 | 36:55.03 | 3:42.01 | 166128 | 182778
11 | 40:37.04 | 0:26.65 | 182779 | 184793
12 | 41:03.69 | 1:16.10 | 184794 | 190503
13 | 42:20.04 | 2:14.72 | 190504 | 200625
14 | 44:35.01 | 2:17.49 | 200626 | 210949
15 | 46:52.50 | 4:27.44 | 210950 | 231018
16 | 51:20.19 | 5:43.18 | 231019 | 256761
17 | 57:03.37 | 5:34.17 | 256762 | 281828
18 | 62:37.54 | 4:13.64 | 281829 | 300867
19 | 66:51.43 | 2:22.43 | 300868 | 311560
20 | 69:14.11 | 9:43.13 | 311561 | 355298

Track 1 Filename P:\DL\Remi Geniet - J.S.Bach - Partita No.4, Caprice, Suite Anglaise No.1, Toccata en do min (2014) [FLAC]\01 - Partita no.4 BWV 828 - Ouverture.wav Pre-gap length 0:00:02.00 Peak level 72.0 %
Extraction speed 6.0 X
Track quality 100.0 %
Test CRC 52E60507
Copy CRC 52E60507
Track not present in AccurateRip database
Copy OK

Track 2 Filename P:\DL\Remi Geniet - J.S.Bach - Partita No.4, Caprice, Suite Anglaise No.1, Toccata en do min (2014) [FLAC]\02 - Partita no.4 BWV 828 - Allemande.wav Peak level 65.1 %
Extraction speed 7.0 X
Track quality 100.0 %
Test CRC EE1D605D
Copy CRC EE1D605D
Track not present in AccurateRip database
Copy OK

Track 3 Filename P:\DL\Remi Geniet - J.S.Bach - Partita No.4, Caprice, Suite Anglaise No.1, Toccata en do min (2014) [FLAC]\03 - Partita no.4 BWV 828 - Courante.wav Peak level 67.5 %
Extraction speed 5.7 X
Track quality 99.9 %
Test CRC 0D935713
Copy CRC 0D935713
Track not present in AccurateRip database
Copy OK

Track 4 Filename P:\DL\Remi Geniet - J.S.Bach - Partita No.4, Caprice, Suite Anglaise No.1, Toccata en do min (2014) [FLAC]\04 - Partita no.4 BWV 828 - Aria.wav Peak level 75.7 %
Extraction speed 6.5 X
Track quality 100.0 %
Test CRC 83783AFF
Copy CRC 83783AFF
Track not present in AccurateRip database
Copy OK

Track 5 Filename P:\DL\Remi Geniet - J.S.Bach - Partita No.4, Caprice, Suite Anglaise No.1, Toccata en do min (2014) [FLAC]\05 - Partita no.4 BWV 828 - Sarabande.wav Peak level 50.5 %
Extraction speed 6.8 X
Track quality 99.9 %
Test CRC A7803E58
Copy CRC A7803E58
Track not present in AccurateRip database
Copy OK

Track 6 Filename P:\DL\Remi Geniet - J.S.Bach - Partita No.4, Caprice, Suite Anglaise No.1, Toccata en do min (2014) [FLAC]\06 - Partita no.4 BWV 828 - Menuet.wav Peak level 60.2 %
Extraction speed 4.7 X
Track quality 99.8 %
Test CRC 671CC580
Copy CRC 671CC580
Track not present in AccurateRip database
Copy OK

Track 7 Filename P:\DL\Remi Geniet - J.S.Bach - Partita No.4, Caprice, Suite Anglaise No.1, Toccata en do min (2014) [FLAC]\07 - Partita no.4 BWV 828 - Gigue.wav Peak level 82.9 %
Extraction speed 8.0 X
Track quality 100.0 %
Test CRC ADD2E7C6
Copy CRC ADD2E7C6
Track not present in AccurateRip database
Copy OK

Track 8 Filename P:\DL\Remi Geniet - J.S.Bach - Partita No.4, Caprice, Suite Anglaise No.1, Toccata en do min (2014) [FLAC]\08 - Capriccio BWV 992 - Adagio.wav Pre-gap length 0:00:03.44 Peak level 38.4 %
Extraction speed 5.5 X
Track quality 99.9 %
Test CRC FA087EB3
Copy CRC FA087EB3
Track not present in AccurateRip database
Copy OK

Track 9 Filename P:\DL\Remi Geniet - J.S.Bach - Partita No.4, Caprice, Suite Anglaise No.1, Toccata en do min (2014) [FLAC]\09 - Capriccio BWV 992 - Andante.wav Peak level 51.9 %
Extraction speed 5.1 X
Track quality 99.8 %
Test CRC 55893CED
Copy CRC 55893CED
Track not present in AccurateRip database
Copy OK

Track 10 Filename P:\DL\Remi Geniet - J.S.Bach - Partita No.4, Caprice, Suite Anglaise No.1, Toccata en do min (2014) [FLAC]\10 - Capriccio BWV 992 - Adagiosissimo.wav Peak level 40.2 %
Extraction speed 8.4 X
Track quality 100.0 %
Test CRC 47452D11
Copy CRC 47452D11
Track not present in AccurateRip database
Copy OK

Track 11 Filename P:\DL\Remi Geniet - J.S.Bach - Partita No.4, Caprice, Suite Anglaise No.1, Toccata en do min (2014) [FLAC]\11 - Capriccio BWV 992 - Un poco largo.wav Peak level 99.1 %
Extraction speed 2.3 X
Track quality 99.6 %
Test CRC E31955CB
Copy CRC E31955CB
Track not present in AccurateRip database
Copy OK

Track 12 Filename P:\DL\Remi Geniet - J.S.Bach - Partita No.4, Caprice, Suite Anglaise No.1, Toccata en do min (2014) [FLAC]\12 - Capriccio BWV 992 - Aria di Postiglione.wav Peak level 43.9 %
Extraction speed 7.0 X
Track quality 100.0 %
Test CRC 7B18453E
Copy CRC 7B18453E
Track not present in AccurateRip database
Copy OK

Track 13 Filename P:\DL\Remi Geniet - J.S.Bach - Partita No.4, Caprice, Suite Anglaise No.1, Toccata en do min (2014) [FLAC]\13 - Capriccio BWV 992 - Fuga.wav Peak level 100.0 %
Extraction speed 8.2 X
Track quality 100.0 %
Test CRC B625E181
Copy CRC B625E181
Track not present in AccurateRip database
Copy OK

Track 14 Filename P:\DL\Remi Geniet - J.S.Bach - Partita No.4, Caprice, Suite Anglaise No.1, Toccata en do min (2014) [FLAC]\14 - Suite no.1 BWV 806 - Prelude.wav Pre-gap length 0:00:03.29 Peak level 61.4 %
Extraction speed 8.0 X
Track quality 100.0 %
Test CRC 2F88BBC0
Copy CRC 2F88BBC0
Track not present in AccurateRip database
Copy OK

Track 15 Filename P:\DL\Remi Geniet - J.S.Bach - Partita No.4, Caprice, Suite Anglaise No.1, Toccata en do min (2014) [FLAC]\15 - Suite no.1 BWV 806 - Allemande.wav Peak level 54.0 %
Extraction speed 7.7 X
Track quality 99.9 %
Test CRC FF35B9A8
Copy CRC FF35B9A8
Track not present in AccurateRip database
Copy OK

Track 16 Filename P:\DL\Remi Geniet - J.S.Bach - Partita No.4, Caprice, Suite Anglaise No.1, Toccata en do min (2014) [FLAC]\16 - Suite no.1 BWV 806 - Courantes I & II.wav Peak level 68.3 %
Extraction speed 9.7 X
Track quality 100.0 %
Test CRC EA60D434
Copy CRC EA60D434
Track not present in AccurateRip database
Copy OK

Track 17 Filename P:\DL\Remi Geniet - J.S.Bach - Partita No.4, Caprice, Suite Anglaise No.1, Toccata en do min (2014) [FLAC]\17 - Suite no.1 BWV 806 - Sarabande.wav Peak level 58.7 %
Extraction speed 9.8 X
Track quality 100.0 %
Test CRC 21CB455F
Copy CRC 21CB455F
Track not present in AccurateRip database
Copy OK

Track 18 Filename P:\DL\Remi Geniet - J.S.Bach - Partita No.4, Caprice, Suite Anglaise No.1, Toccata en do min (2014) [FLAC]\18 - Suite no.1 BWV 806 - Bourees I & II.wav Peak level 77.3 %
Extraction speed 9.3 X
Track quality 100.0 %
Test CRC 5AD852FB
Copy CRC 5AD852FB
Track not present in AccurateRip database
Copy OK

Track 19 Filename P:\DL\Remi Geniet - J.S.Bach - Partita No.4, Caprice, Suite Anglaise No.1, Toccata en do min (2014) [FLAC]\19 - Suite no.1 BWV 806 - Gigue.wav Peak level 66.8 %
Extraction speed 9.3 X
Track quality 100.0 %
Test CRC 19DB5B2D
Copy CRC 19DB5B2D
Track not present in AccurateRip database
Copy OK

Track 20 Filename P:\DL\Remi Geniet - J.S.Bach - Partita No.4, Caprice, Suite Anglaise No.1, Toccata en do min (2014) [FLAC]\20 - Toccata en do mineur BWV 911.wav Pre-gap length 0:00:03.26 Peak level 100.0 %
Extraction speed 11.4 X
Track quality 100.0 %
Test CRC C1CF293F
Copy CRC C1CF293F
Track not present in AccurateRip database
Copy OK

None of the tracks are present in the AccurateRip database

No errors occurred

End of status report

- CUETools DB Plugin V2.1.6

[CTDB TOCID: NlUaQHgibmdWu9oTVJlHReFikeM-] disk not present in database
Submit result:

==== Log checksum CDFDF2206C7D8F39B4441FBEAC80F672FA4E9AA3E66BCECAD3C36D90CE35909B ====

http://i72.fastpic.ru/big/2015/0708/5c/6c0d7100231b324de37f85da5381935c.jpg

DOWNLOAD LINKS:
Buy Premium To Support Me & Get Resumable Support & Max Speed


Links are Interchangeable - No Password - Single Extraction

 
 
 
Dear visitor, you went to the site as an unregistered user. We encourage you to register or enter the site under your name.
 
   
 
 (Votes #: 0)