2013Zone For Latest Downloads

 
     
 
Legal Downloads » Music » Puccini - Tosca (Marco Boemi, Daniela Dessi, Fabio Armiliato) (2010) [BluRay-rip]
Menu
Home Applications
Games Movies
Music TV Shows
Torrents Graphics

Sitemap

RSS
 
Advanced Search
Last News
Site Info
Top Contributors:
  1    supper88 32766
  2    admin 32651
  3    Whisky 10080
  4    Shark_ 8911
  5    creativelivenew 8706
  6    whathesupa 2799
  7    candymypost 840
  8    hvnteam 629
  9    vuong87 3


Articles:
  This Hour: 0
  Today: 0
  This Month: 0
  All Time: 515681


Torrents:
  Today: 0
  Yesterday: 0
  All Time: 156685


Membership:
  Registered Today :0
  This Hour:0
  This Month:0
  Total:14
  Banned:1

{online}
{inform_torrent}
Friend:
We Recomend
Trend
Trend
onlinemovies

Search In Site

Music : Puccini - Tosca (Marco Boemi, Daniela Dessi, Fabio Armiliato) (2010) [BluRay-rip]
 
http://i72.fastpic.ru/big/2015/0708/9f/bb4629ef56dfef3b264d869e08b6e19f.jpg

Puccini - Tosca (Marco Boemi, Daniela Dessi, Fabio Armiliato) (2010) luRay-rip
Classical | BluRay-rip | AVC | MKV 1920x1080 (16:9) / 6215 kbps / 25,0 fps | 141 min | 7,67GB
Audio: Italian / DTS / 6ch / 48.0 KHz / 24 bits
Sub: Italian, English, German, French, Spanish, Japanese, Korean

"This production from the historic Teatro Carlo Felice in Genova, Italy, stars the opera worlds power couple, Daniela Dessì and Fabio Armiliato, as lovers Tosca and Cavaradossi. A tragic tale of doomed love interlaced with the age-old themes of jealousy, lust and intrigue, has ensured Tosca its place in the top ten of opera favourites. The task of putting Tosca on the stage in a way that is credible and timeless is both straightforward and difficult. For the three main roles the unscrupulous police chief Vitellio Scarpia and the painter Mario Cavaradossi, who provide a framework for Floria Tosca, a famous singer (both on stage and in real life), all you need is star performers of the required virtuosity, although they do need to display a certain enjoyment in performing something one has never been able to take for granted in music theatre."

Cast:
Tosca - Daniela Dessi
Mario Cavaradossi - Fabio Armiliato
Scarpia - Claudio Sgura
Angelotti - Nikolay Bikov
Orchestra and Chorus of the Teatro Carlo Felice
Conductor - Marco Boemi

Video
ID : 1
Format
: AVC
Format/Info
: Advanced Video Codec
Format profile : [email protected]
Format settings, CABAC : Yes
Format settings, ReFrames : 2 frames
Format settings, GOP : M=3, N=24
Codec ID
: V_MPEG4/ISO/AVC
Duration
: 2h 21mn
Bit rate
: 6 215 Kbps
Width
: 1 920 pixels
Height
: 1 080 pixels
Display aspect ratio : 16:9
Frame rate mode : Constant
Frame rate
: 29.970 fps
Color space
: YUV
Chroma subsampling

: 4:2:0
Bit depth
: 8 bits
Scan type
: Progressive
Bits/(Pixel*Frame)

: 0.100
Stream size
: 6.03 GiB (79%)
Writing library : x264 core 142
Encoding settings: cabac=1 / ref=1 / deblock=1:-1:-1 / analyse=0x3:0 / me=hex / subme=5 / psy=0 / mixed_ref=0 / me_range=16 / chroma_me=1 / trellis=0 / 8x8dct=1 / cqm=0 / deadzone=21,11 / fast_pskip=1 / chroma_qp_offset=0 / threads=8 / lookahead_threads=2 / sliced_threads=0 / nr=0 / decimate=1 / interlaced=0 / bluray_compat=0 / constrained_intra=0 / bframes=2 / b_pyramid=0 / b_adapt=1 / b_bias=0 / direct=1 / weightb=1 / open_gop=0 / weightp=0 / keyint=24 / keyint_min=13 / scenecut=40 / intra_refresh=0 / rc=abr / mbtree=0 / bitrate=6215 / ratetol=1.0 / qcomp=0.60 / qpmin=0 / qpmax=69 / qpstep=4 / ip_ratio=1.40 / pb_ratio=1.30 / aq=1:1.00
Default
: Yes
Forced
: No
Color primaries : BT.709
Transfer characteristics : BT.709
Matrix coefficients

: BT.709
Color range
: Limited

Audio
ID : 2
Format
: DTS
Format/Info
: Digital Theater Systems
Mode
: 16
Format settings, Endianness : Big
Codec ID
: A_DTS
Duration
: 2h 21mn
Bit rate mode : Constant
Bit rate
: 1 509 Kbps
Channel(s)
: 6 channels
Channel positions: Front: L C R, Side: L R, LFE
Sampling rate : 48.0 KHz
Bit depth
: 24 bits
Compression mode : Lossy
Stream size
: 1.49 GiB (19%)
Language
: Italian
Default
: Yes
Forced
: No

Text #1
ID : 3
Format
: VobSub
Codec ID
: S_VOBSUB
Codec ID/Info : The same subtitle format used on DVDs
Language
: Italian
Default
: Yes
Forced
: No

Text #2
ID : 4
Format
: VobSub
Codec ID
: S_VOBSUB
Codec ID/Info : The same subtitle format used on DVDs
Language
: English
Default
: No
Forced
: No

Text #3
ID : 5
Format
: VobSub
Codec ID
: S_VOBSUB
Codec ID/Info : The same subtitle format used on DVDs
Language
: German
Default
: No
Forced
: No

Text #4
ID : 6
Format
: VobSub
Codec ID
: S_VOBSUB
Codec ID/Info : The same subtitle format used on DVDs
Language
: French
Default
: No
Forced
: No

Text #5
ID : 7
Format
: VobSub
Codec ID
: S_VOBSUB
Codec ID/Info : The same subtitle format used on DVDs
Language
: Spanish
Default
: No
Forced
: No

Text #6
ID : 8
Format
: VobSub
Codec ID
: S_VOBSUB
Codec ID/Info : The same subtitle format used on DVDs
Language
: Japanese
Default
: No
Forced
: No

Text #7
ID : 9
Format
: VobSub
Codec ID
: S_VOBSUB
Codec ID/Info : The same subtitle format used on DVDs
Language
: Korean
Default
: No
Forced
: No

Menu
00:00:00.000 : en:Chapter 01
00:03:37.817 : en:Chapter 02
00:05:45.278 : en:Chapter 03
00:07:56.742 : en:Chapter 04
00:09:55.394 : en:Chapter 05
00:14:10.716 : en:Chapter 06
00:15:25.858 : en:Chapter 07
00:21:20.445 : en:Chapter 08
00:25:10.175 : en:Chapter 09
00:29:28.666 : en:Chapter 10
00:32:16.367 : en:Chapter 11
00:33:33.978 : en:Chapter 12
00:35:17.782 : en:Chapter 13
00:39:19.990 : en:Chapter 14
00:42:53.537 : en:Chapter 15
00:47:48.432 : en:Chapter 16
00:52:19.569 : en:Chapter 17
00:55:47.477 : en:Chapter 18
00:58:19.262 : en:Chapter 19
01:00:59.989 : en:Chapter 20
01:03:42.852 : en:Chapter 21
01:08:21.964 : en:Chapter 22
01:12:47.329 : en:Chapter 23
01:15:18.180 : en:Chapter 24
01:17:38.387 : en:Chapter 25
01:21:40.996 : en:Chapter 26
01:31:29.750 : en:Chapter 27
01:35:34.595 : en:Chapter 28
01:42:37.951 : en:Chapter 29
01:44:14.681 : en:Chapter 30
01:49:21.655 : en:Chapter 31
01:52:58.605 : en:Chapter 32
02:01:38.224 : en:Chapter 33
02:04:56.188 : en:Chapter 34
02:06:42.461 : en:Chapter 35
02:10:39.631 : en:Chapter 36
02:13:28.433 : en:Chapter 37
02:15:49.841 : en:Chapter 38
02:17:47.993 : en:Chapter 39

http://i69.fastpic.ru/big/2015/0708/f9/caf70e5e8e7d3e09256f17311ebeeef9.jpg




DOWNLOAD LINKS:
Buy Premium To Support Me & Get Resumable Support & Max Speed


Links are Interchangeable - No Password - Single Extraction

 
 
 
Dear visitor, you went to the site as an unregistered user. We encourage you to register or enter the site under your name.
 
   
 
 (Votes #: 0)