2013Zone For Latest Downloads

 
     
 
Legal Downloads » Music » Adam Lambert - The Original High (2015) [Japan, WPCR-16617]
Menu
Home Applications
Games Movies
Music TV Shows
Torrents Graphics

Sitemap

RSS
 
Advanced Search
Last News
Site Info
Top Contributors:
  1    supper88 32766
  2    admin 32651
  3    Whisky 10080
  4    Shark_ 8911
  5    creativelivenew 8706
  6    whathesupa 2799
  7    candymypost 840
  8    hvnteam 629
  9    vuong87 3


Articles:
  This Hour: 0
  Today: 0
  This Month: 13
  All Time: 515682


Torrents:
  Today: 0
  Yesterday: 0
  All Time: 156685


Membership:
  Registered Today :0
  This Hour:0
  This Month:0
  Total:14
  Banned:1

{online}
{inform_torrent}
Friend:
We Recomend
Trend
Trend
onlinemovies

Search In Site

Music : Adam Lambert - The Original High (2015) [Japan, WPCR-16617]
 
http://i70.fastpic.ru/big/2015/0708/d3/d78f952f91f4974ae5221a2cc0c605d3.jpg

Adam Lambert - The Original High (2015)
EAC Rip | FLAC (Img) + Cue + Log ~ 445 Mb | MP3 CBR320 ~ 150 Mb
Scans (JPG, 600 dpi) ~ 104 Mb | RAR 5% Recovery
Dance, Pop | Warner Bros. #WPCR-16617

"The Original High is the third studio album by American recording artist Adam Lambert, released on June 12, 2015, by Warner Bros. Records. The album marks Lambert's first release since leaving previous record label, RCA Records. The record's style has been described as pop, with additional influences of dance, house and funk genres. The album debuted on the Billboard 200 at number three. On the UK Albums Chart, The Original High debuted at number eight, giving Lambert his first-ever UK top ten debut. The album also achieved Lambert's highest-ever album position in the Netherlands, debuting at number ten..."

Official Website | Wiki | Discogs | All Music
***************

http://i70.fastpic.ru/big/2015/0708/b4/4b7e4eebfd9c604270b7a3f93ae74eb4.jpg

Track List:

01. Ghost Town [03:29]
02. The Original High [03:27]
03. Another Lonely Night [03:46]
04. Underground [03:38]
05. There I Said It [04:21]
06. Rumors [feat. Tove Lo] [03:46]
07. Evil In The Night [03:57]
08. Lucy [feat. Brian May] [03:33]
09. Things I Didn't Say [03:59]
10. The Light [03:36]
11. Heavy Fire [03:20]
12. After Hours [02:45]
13. Shame [03:27]
14. These Boys [03:26]

Bonus Tracks

15. Ghost Town (Blood Diamonds Remix) [03:49]
16. Ghost Town (Seventyeight Remix) [03:13]
17. Ghost Town (Tritonal Remix) [05:11]

Exact Audio Copy V1.0 beta 6 from 9. April 2015

Отчёт EAC об извлечении, выполненном 6. июля 2015, 22:35

Adam Lambert / The Original High [Japan]

Дисковод: SlimtypeDVD A DS8A9SH Adapter: 1 ID: 0

Режим чтения : Достоверность
?спользование точного потока : Да
Отключение кэ?а аудио : Да
?спользование указателей C2 : Нет

Коррекция смещения при чтении : 6
Способность читать области Lead-in и Lead-out : Нет
Заполнение пропущенных сэмплов ти?иной : Да
Удаление блоков с ти?иной в начале и конце : Нет
При вычислениях CRC использовались нулевые сэмплы : Да
?нтерфейс : Встроенный Win32-интерфейс для Win NT/2000

Выходной формат : Пользовательский кодировщик
Выбранный битрейт : 128 kBit/s
Качество : Высокий
Добавление ID3-тега : Нет
Утилита сжатия : D:\Programm Files\FLAC\FLAC.EXE
Дополнительные параметры : -V -8 -T "Date=%year%" -T "Genre=%genre%" %source%

TOC извлечённого CD Трек | Старт | Длительность | Начальный сектор | Конечный сектор

1 | 0:00.00 | 3:28.23 | 0 | 15622
2 | 3:28.23 | 3:26.04 | 15623 | 31076
3 | 6:54.27 | 3:45.60 | 31077 | 48011
4 | 10:40.12 | 3:37.31 | 48012 | 64317
5 | 14:17.43 | 4:20.74 | 64318 | 83891
6 | 18:38.42 | 3:45.63 | 83892 | 100829
7 | 22:24.30 | 3:56.34 | 100830 | 118563
8 | 26:20.64 | 3:32.15 | 118564 | 134478
9 | 29:53.04 | 3:58.11 | 134479 | 152339
10 | 33:51.15 | 3:35.44 | 152340 | 168508
11 | 37:26.59 | 3:19.12 | 168509 | 183445
12 | 40:45.71 | 2:44.07 | 183446 | 195752
13 | 43:30.03 | 3:26.36 | 195753 | 211238
14 | 46:56.39 | 3:25.65 | 211239 | 226678
15 | 50:22.29 | 3:48.61 | 226679 | 243839
16 | 54:11.15 | 3:12.38 | 243840 | 258277
17 | 57:23.53 | 5:10.30 | 258278 | 281557

Характеристики диапазона извлечения и сообщения об о?ибках

Выбранный диапазон ?мя файла D:\My Rips\Audio\Adam Lambert - The Original High [Japan]\Adam Lambert - The Original High [Japan].wav Пиковый уровень 99.8 %
Скорость извлечения 5.0 X
Качество диапазона 100.0 %
CRC теста 2F804E83
CRC копии 2F804E83
Копирование... OK

О?ибок не произо?ло


AccurateRip: сводка

Трек 1 отсутствует в базе данных
Трек 2 отсутствует в базе данных
Трек 3 отсутствует в базе данных
Трек 4 отсутствует в базе данных
Трек 5 отсутствует в базе данных
Трек 6 отсутствует в базе данных
Трек 7 отсутствует в базе данных
Трек 8 отсутствует в базе данных
Трек 9 отсутствует в базе данных
Трек 10 отсутствует в базе данных
Трек 11 отсутствует в базе данных
Трек 12 отсутствует в базе данных
Трек 13 отсутствует в базе данных
Трек 14 отсутствует в базе данных
Трек 15 отсутствует в базе данных
Трек 16 отсутствует в базе данных
Трек 17 отсутствует в базе данных

Ни одного трека нет в базе AccurateRip

Конец отчёта

==== Контрольная сумма отчёта F074F59F81CD44CD1B60750CAD844B9CD394717B431BEBF4166F5816B18C48AF ====

foobar2000 1.2.6 / Dynamic Range Meter 1.1.1
log date: 2015-07-07 04:02:17

Analyzed: Adam Lambert / The Original High [Japan]

DR Peak RMS Duration Track

DR4 -0.13 dB -6.91 dB 3:28 01-Ghost Town
DR5 -0.01 dB -8.19 dB 3:26 02-The Original High
DR5 -0.18 dB -8.08 dB 3:46 03-Another Lonely Night
DR6 -0.01 dB -9.39 dB 3:37 04-Underground
DR7 -0.16 dB -11.14 dB 4:21 05-There I Said It
DR6 -0.15 dB -8.87 dB 3:46 06-Rumors [feat. Tove Lo]
DR5 -0.01 dB -8.50 dB 3:56 07-Evil In The Night
DR5 -0.01 dB -7.80 dB 3:32 08-Lucy [feat. Brian May]
DR7 -0.05 dB -8.85 dB 3:58 09-Things I Didn't Say
DR6 -0.01 dB -8.00 dB 3:36 10-The Light
DR5 -0.01 dB -7.07 dB 3:19 11-Heavy Fire
DR5 -0.11 dB -9.62 dB 2:44 12-After Hours
DR7 -0.01 dB -8.54 dB 3:26 13-Shame
DR6 -0.01 dB -7.42 dB 3:26 14-These Boys
DR7 -0.10 dB -10.33 dB 3:49 15-Ghost Town (Blood Diamonds Remix)
DR5 -0.30 dB -8.02 dB 3:13 16-Ghost Town (Seventyeight Remix)
DR3 -2.10 dB -7.13 dB 5:10 17-Ghost Town (Tritonal Remix)

Number of tracks: 17
Official DR value: DR6

Samplerate: 44100 Hz
Channels: 2
Bits per sample: 16
Bitrate: 946 kbps
Codec: FLAC

[CUETools log; Date: 07.07.2015 4:01:34; Version: 2.1.5]
[CTDB TOCID: SOjvZCZllLLPzXTh4N.CveJMjmc-] found.
Track | CTDB Status
1 | (1/1) Accurately ripped
2 | (1/1) Accurately ripped
3 | (1/1) Accurately ripped
4 | (1/1) Accurately ripped
5 | (1/1) Accurately ripped
6 | (1/1) Accurately ripped
7 | (1/1) Accurately ripped
8 | (1/1) Accurately ripped
9 | (1/1) Accurately ripped
10 | (1/1) Accurately ripped
11 | (1/1) Accurately ripped
12 | (1/1) Accurately ripped
13 | (1/1) Accurately ripped
14 | (1/1) Accurately ripped
15 | (1/1) Accurately ripped
16 | (1/1) Accurately ripped
17 | (1/1) Accurately ripped
[AccurateRip ID: 00266da5-01e5f246-d70eaa11] disk not present in database.

Track Peak [ CRC32 ] [W/O NULL] [ LOG ]
-- 99,8 [2F804E83] [F6EBA0F0] CRC32
01 98,5 B9EB164 [E4737ABF]
02 99,8 [83E0D475] [3994B510]
03 98,0 [A7951483] [1F327178]
04 99,8 738B7D2 [DA3B455C]
05 98,2 [20BEB816] [7E4FFB85]
06 98,3 [0B186A6B] [427C889D]
07 99,8 [3098E000] [A894AD8A]
08 99,8 [05D70B86] 26FC65D
09 99,4 [6A65A317] [A8D7693B]
10 99,8 [8B64BE78] EE012B4
11 99,8 [CCF119A6] [D99838AE]
12 98,7 [4133134B] [28FEA674]
13 99,8 [87568066] [4F95530A]
14 99,8 [68BEEC1C] [454B6694]
15 98,8 14F4059 [5423F9B7]
16 96,6 [A7D72124] [AECDF472]
17 78,5 [8F48DB7B] [3AC997F3]

http://i69.fastpic.ru/big/2015/0708/38/48871e931a2ae3469e2513d4827a7538.jpg


DOWNLOAD LINKS:
Buy Premium To Support Me & Get Resumable Support & Max Speed


Links are Interchangeable - No Password - Single Extraction

 
 
 
Dear visitor, you went to the site as an unregistered user. We encourage you to register or enter the site under your name.
 
   
 
 (Votes #: 0)