2013Zone For Latest Downloads

 
     
 
Legal Downloads » Music » Jethro Tull - The Originals (1998) [3CD Box Set]
Menu
Home Applications
Games Movies
Music TV Shows
Torrents Graphics

Sitemap

RSS
 
Advanced Search
Last News
Site Info
Top Contributors:
  1    supper88 32766
  2    admin 32651
  3    Whisky 10080
  4    Shark_ 8911
  5    creativelivenew 8706
  6    whathesupa 2799
  7    candymypost 840
  8    hvnteam 629
  9    vuong87 3


Articles:
  This Hour: 0
  Today: 0
  This Month: 13
  All Time: 515682


Torrents:
  Today: 0
  Yesterday: 0
  All Time: 156685


Membership:
  Registered Today :0
  This Hour:0
  This Month:0
  Total:14
  Banned:1

{online}
{inform_torrent}
Friend:
We Recomend
Trend
Trend
onlinemovies

Search In Site

ad1

Music : Jethro Tull - The Originals (1998) [3CD Box Set]
 
http://i71.fastpic.ru/big/2015/0708/32/e8fd34d74e424cbcd277236f4284d732.jpg

Jethro Tull - The Originals (1998)
EAC | Flac(Image) + Cue + Log & MP3 CBR 320Kbps
3CD | EMI, CDOMB 021 | ~ 684 or 284 Mb | Scans(600dpi, jpg) -> 62 Mb
Progressive Rock

"While audiophile editions of Thick as a Brick, Aqualung, Living in the Past, and A Passion Play are easily obtainable, Tull's very earliest albums have languished in substandard editions on CD for ten years. This triple-CD box from England, part of EMI's 100th Anniversary reissue series, rectifies the problem, featuring newly remastered versions of This Was, Stand Up, and Benefit, each packaged in a miniature re-creation of the original LP sleeve..."

http://i71.fastpic.ru/big/2015/0708/09/952986e8a83b9323fe2b29bdd931b209.jpg

Jethro Tull at Wiki | Jethro Tull at Discogs | Jethro Tull at Allmusic | Jethro Tull HomePage

***********

Jethro Tull - The Originals at Discogs
Jethro Tull - The Originals (1998):

http://i72.fastpic.ru/big/2015/0708/33/7fb295beda642a4c45a588b18d678a33.jpg

CD01: Jethro Tull - This Was (1968)
EAC | Flac(Image) + Cue + Log & MP3 CBR 320Kbps
~ 190 or 90 Mb | Scans(600dpi, jpg) -> 62 Mb
Progressive Rock

"Jethro Tull was very much a blues band on their debut album, vaguely reminiscent of the Graham Bond Organization only more cohesive, and with greater commercial sense. The revelations about the group's roots on This Was -- which was recorded during the summer of 1968 -- can be astonishing, even 30 years after the fact. Original lead guitarist Mick Abrahams contributed to the songwriting and the singing, and his presence as a serious bluesman is felt throughout, often for the better: "Some Day the Sun Won't Shine for You," an Ian Anderson original that could just as easily be credited to Big Bill Broonzy or Robert Johnson; "Cat's Squirrel," Abrahams' big showcase, where he ventures into Eric Clapton territory; and "It's Breaking Me Up," which also features some pretty hot guitar from Abrahams. Roland Kirk's "Serenade to a Cuckoo" (the first song Anderson learned to play on flute), their jazziest track ever, is one of the best parts of the album. The drum solo on "Dharma for One" now seems like a mistake, but is understandable in the context of the time in which it was done. The one number here that everybody knows, "A Song for Jeffrey," almost pales amid these surroundings, but at the time it was a superb example of commercial psychedelic blues. This would be the last album of its kind by the group, as Abrahams' departure and the lure of more fertile inspiration tugged them toward English folk music. Curiously, the audio mix here is better than that on their second album, with a much stronger, harder group sound overall. In late 2001, This Was was reissued in a remastered edition with much crisper sound and three bonus tracks. The jazzy improvisation "One for John Gee" (a reference to the manager of the Marquee Club), the folky "Love Story" (which marked the end of Mick Abrahams' tenure with the group), and the novelty piece "Christmas Song" have all been heard before but, more to the point, they're worth hearing again, especially in the fidelity they have here.


by Bruce Eder, AMG
"


Tracklist:

01. My Sunday Feeling (3:42)
02. Some Day The Sun Won't Shine For You (2:49)
03. Beggar's Farm (4:20)
04. Move On Alone (1:59)
05. Serenade To A Cuckoo (6:11)
06. Dharma For One (4:16)
07. It's Breaking Me Up (5:05)
08. Cat's Squirrel (5:44)
09. A Song For Jeffrey (3:23)
10. Round (0:49)

Exact Audio Copy V0.99 prebeta 3 from 28. July 2007

EAC extraction logfile from 24. September 2012, 15:05

Jethro Tull / This Was

Used drive : PIONEER DVD-RW DVR-118L Adapter: 0 ID: 0

Read mode : Secure
Utilize accurate stream : Yes
Defeat audio cache : Yes
Make use of C2 pointers : No

Read offset correction

: 6
Overread into Lead-In and Lead-Out : No
Fill up missing offset samples with silence : Yes
Delete leading and trailing silent blocks : No
Null samples used in CRC calculations : Yes
Used interface
: Installed external ASPI interface

Used output format : User Defined Encoder
Selected bitrate : 768 kBit/s
Quality : High
Add ID3 tag : No
Command line compressor : C:\Arquivos de programas\Exact Audio Copy\FLAC\FLAC.EXE
Additional command line options : -6 -V -T "ARTIST=%a" -T "TITLE=%t" -T "ALBUM=%g" -T "DATE=%y" -T "TRACKNUMBER=%n" -T "GENRE=%m" -T "COMMENT=%e" %s -o %d

TOC of the extracted CD Track | Start | Length | Start sector | End sector
--1 | 0:00.32 | 3:41.65 | 32 | 16671 2 | 3:42.22 | 2:46.70 | 16672 | 29191 3 | 6:29.17 | 4:18.05 | 29192 | 48546 4 | 10:47.22 | 1:57.63 | 48547 | 57384 5 | 12:45.10 | 6:07.10 | 57385 | 84919 6 | 18:52.20 | 4:14.02 | 84920 | 103971 7 | 23:06.22 | 5:00.68 | 103972 | 126539 8 | 28:07.15 | 5:39.10 | 126540 | 151974 9 | 33:46.25 | 3:19.65 | 151975 | 166964
10 | 37:06.15 | 0:56.55 | 166965 | 171219

Range status and errors

Selected range Filename C:\Documents and Settings\Administrador\Meus documentos\Jethro Tull - The Originals - CD1_This Was (1968-1998) (Eac Flac) (Sanparr_HQS)\Jethro Tull - This Was.wav Peak level 100.0 %
Range quality 99.9 %
Test CRC 9C3A2D4C
Copy CRC 9C3A2D4C
Copy OK

No errors occurred


AccurateRip summary

Track 1 accurately ripped (confidence 5) [95E86260]
Track 2 accurately ripped (confidence 5) [7E931C66]
Track 3 accurately ripped (confidence 5) [960AFCD8]
Track 4 accurately ripped (confidence 5) [A666D0C9]
Track 5 accurately ripped (confidence 5) [47E8F0F2]
Track 6 accurately ripped (confidence 5) [9EB87355]
Track 7 accurately ripped (confidence 5) [18045B57]
Track 8 accurately ripped (confidence 5) [834883B8]
Track 9 accurately ripped (confidence 5) [9F1259FB]
Track 10 accurately ripped (confidence 5) [8B7EE0C3]

All tracks accurately ripped

End of status report

foobar2000 1.2.9 / Dynamic Range Meter 1.1.1
log date: 2015-07-06 14:47:49

Analyzed: Jethro Tull / This Was

DR Peak RMS Duration Track

DR12 -0.74 dB -16.13 dB 3:42 01-My Sunday Feeling
DR13 -4.08 dB -21.61 dB 2:47 02-Some Day the Sun Won't Shine For You
DR13 0.00 dB -16.32 dB 4:18 03-Beggar's Farm
DR11 -1.10 dB -16.44 dB 1:58 04-Move on Alone
DR15 -0.38 dB -18.63 dB 6:07 05-Serenade to a Cuckoo
DR13 0.00 dB -15.21 dB 4:14 06-Dharma For One
DR13 -1.99 dB -17.42 dB 5:01 07-It's Breaking Me Up
DR12 0.00 dB -14.97 dB 5:39 08-Cat's Squirrel
DR14 0.00 dB -17.97 dB 3:20 09-A Song for Jeffrey
DR12 -2.65 dB -20.77 dB 0:57 10-Round

Number of tracks: 10
Official DR value: DR13

Samplerate: 44100 Hz
Channels: 2
Bits per sample: 16
Bitrate: 678 kbps
Codec: FLAC

[CUETools log; Date: 06.07.2015 0:53:05; Version: 2.1.5]
Pregap length 00:00:32.
[CTDB TOCID: G5ZOdRCPvQlE21YYJS04ddLyfII-] found.
Track | CTDB Status
1 | (1/1) Accurately ripped
2 | (1/1) Accurately ripped
3 | (1/1) Accurately ripped
4 | (1/1) Accurately ripped
5 | (1/1) Accurately ripped
6 | (1/1) Accurately ripped
7 | (1/1) Accurately ripped
8 | (1/1) Accurately ripped
9 | (1/1) Accurately ripped
10 | (1/1) Accurately ripped
[AccurateRip ID: 000e9bec-0076998a-8d08ea0a] found.
Track [ CRC | V2 ] Status
01 [95e86260|982e5400] (06+08/14) Accurately ripped
02 [7e931c66|77d0985d] (06+08/14) Accurately ripped
03 [960afcd8|383e9fba] (06+08/14) Accurately ripped
04 [a666d0c9|56eeaeeb] (06+08/14) Accurately ripped
05 [47e8f0f2|68c0746b] (06+08/14) Accurately ripped
06 [9eb87355|4539d6f1] (06+08/14) Accurately ripped
07 [18045b57|c92f443c] (06+08/14) Accurately ripped
08 [834883b8|acff9654] (06+08/14) Accurately ripped
09 [9f1259fb|6a03a3e3] (06+08/14) Accurately ripped
10 [8b7ee0c3|e2a60a2b] (06+08/14) Accurately ripped

Track Peak [ CRC32 ] [W/O NULL] [ LOG ]
-- 100,0 [9C3A2D4C] CD23F2B CRC32
01 91,8 [5D07D91E] [94D2598B]
02 62,5 [78AF75EE] [33205E3C]
03 99,9 [40344271] [A08713A7]
04 88,0 [93E93606] [50624A4D]
05 95,6 [2512F39E] [8C209FC3]
06 100,0 [47F7D31C] [53610AE7]
07 79,5 [D105A388] [CDD99D7A]
08 100,0 [FF391807] [0141136A]
09 99,9 [5C5131D8] [FCCCA5EF]
10 73,6 [CF7116F4] [0828ABEA]

* * * * *

http://i70.fastpic.ru/big/2015/0708/84/7cf35f2f81898f18f378d2f951945e84.jpg

CD02: Jethro Tull - Stand Up (1969)
EAC | Flac(Image) + Cue + Log & MP3 CBR 320Kbps
~ 234 or 91 Mb | Scans(600dpi, jpg) -> 62 Mb
Progressive Rock

"The group's second album, with Ian Anderson (vocals, flute, acoustic guitars, keyboards, balalaika), Martin Barre (electric guitar, flute), Clive Bunker (drums), and Glenn Cornick (bass), solidified their sound. There are still elements of blues present in their music, but except for the opening track, "A New Day Yesterday," it is far more muted than on their first album -- new lead guitarist Martin Barre had few of the blues stylings that characterized Mick Abrahams' playing. Rather, the influence of English folk music manifests itself on several cuts, including "Jeffrey Goes to Leicester Square" and "Look into the Sun." The instrumental "Bouree," which could've passed for an early Blood, Sweat & Tears track, became a favorite concert number, with an excellent solo bit featuring Cornick's bass, although at this point Anderson's flute playing on-stage needed a lot of work. As a story-song with opaque lyrics, jarring tempo changes, and loud electric passages juxtaposed with soft acoustic-textured sections, "Back to the Family" is an early forerunner to Thick as a Brick. Similarly, "Reasons for Waiting," with its mix of closely miked acoustic guitar and string orchestra, all hung around a hauntingly beautiful folk-based melody, pointed in the direction of that conceptual piece and its follow-up, A Passion Play. The only major flaw in this album is the mix, which divides the electric and acoustic instruments and fails to find a solid center, but even that has been fixed on recent CD editions. The original LP had a gatefold jacket that included a pop-up representation of the band that has been lost on all subsequent CD versions, except for the Mobile Fidelity audiophile release. In late 2001, Stand Up was re-released in a remastered edition with bonus tracks that boasted seriously improved sound. Anderson's singing comes off richer throughout, and the electric guitars on "Look into the Sun" are very well-delineated in the mix, without any loss in the lyricism of the acoustic backing; the rhythm section on "Nothing Is Easy" has more presence, Bunker's drums and hi-hat playing sounding much closer and sharper; the mandolin on "Fat Man" is practically in your lap; you can hear the action on the acoustic guitar on "Reasons for Waiting," even in the orchestrated passages; and the band sounds like it's in the room with you pounding away on "For a Thousand Mothers." Among the bonus tracks, recorded at around the same time, "Living in the Past," "Driving Song," and "Sweet Dreams" all have a richness and resonance that was implied but never heard before.


by Bruce Eder, AMG
"


Tracklist:

01. A New Day Yesterday (4:10)
02. Jeffrey Goes To Leicester Square (2:12)
03. Bouree (3:47)
04. Back To The Family (3:48)
05. Look Into The Sun (4:21)
06. Nothing Is Easy (4:26)
07. Fat Man (2:52)
08. We Used To Know (4:00)
09. Reasons For Waiting (4:06)
10. For A Thousand Mothers (4:13)

Exact Audio Copy V0.99 prebeta 3 from 28. July 2007

EAC extraction logfile from 26. September 2012, 13:08

Jethro Tull / Stand Up K Mini Replica

Used drive : PIONEER DVD-RW DVR-118L Adapter: 0 ID: 0

Read mode : Secure
Utilize accurate stream : Yes
Defeat audio cache : Yes
Make use of C2 pointers : No

Read offset correction

: 6
Overread into Lead-In and Lead-Out : No
Fill up missing offset samples with silence : Yes
Delete leading and trailing silent blocks : No
Null samples used in CRC calculations : Yes
Used interface
: Installed external ASPI interface

Used output format : User Defined Encoder
Selected bitrate : 768 kBit/s
Quality : High
Add ID3 tag : No
Command line compressor : C:\Arquivos de programas\Exact Audio Copy\FLAC\FLAC.EXE
Additional command line options : -6 -V -T "ARTIST=%a" -T "TITLE=%t" -T "ALBUM=%g" -T "DATE=%y" -T "TRACKNUMBER=%n" -T "GENRE=%m" -T "COMMENT=%e" %s -o %d

TOC of the extracted CD Track | Start | Length | Start sector | End sector
--1 | 0:00.00 | 4:11.22 | 0 | 18846 2 | 4:11.22 | 2:11.23 | 18847 | 28694 3 | 6:22.45 | 3:48.05 | 28695 | 45799 4 | 10:10.50 | 3:54.07 | 45800 | 63356 5 | 14:04.57 | 4:24.00 | 63357 | 83156 6 | 18:28.57 | 4:27.65 | 83157 | 103246 7 | 22:56.47 | 2:53.00 | 103247 | 116221 8 | 25:49.47 | 4:03.53 | 116222 | 134499 9 | 29:53.25 | 4:07.62 | 134500 | 153086
10 | 34:01.12 | 4:17.10 | 153087 | 172371

Range status and errors

Selected range Filename C:\Documents and Settings\Administrador\Meus documentos\Jethro Tull - The Originals - CD2_Stand Up (1969-1997) (Eac Flac) (Sanparr_HQS)\Jethro Tull - Stand Up.wav Peak level 98.5 %
Range quality 100.0 %
Test CRC F61F1625
Copy CRC F61F1625
Copy OK

No errors occurred


AccurateRip summary

Track 1 accurately ripped (confidence 5) [357BE764]
Track 2 accurately ripped (confidence 5) [603BDE40]
Track 3 accurately ripped (confidence 4) [8875F954]
Track 4 accurately ripped (confidence 5) [0A978D88]
Track 5 accurately ripped (confidence 4) [2044FB03]
Track 6 accurately ripped (confidence 5) [754C4B7B]
Track 7 accurately ripped (confidence 4) [E1074190]
Track 8 accurately ripped (confidence 5) [F4108083]
Track 9 accurately ripped (confidence 4) [91C2C24F]
Track 10 accurately ripped (confidence 4) [EF4EC411]

All tracks accurately ripped

End of status report

foobar2000 1.2.9 / Dynamic Range Meter 1.1.1
log date: 2015-07-06 15:03:22

Analyzed: Jethro Tull / Stand Up K Mini Replica

DR Peak RMS Duration Track

DR10 -0.17 dB -11.38 dB 4:11 01-A New Day Yesterday
DR11 -0.17 dB -13.51 dB 2:11 02-Jeffrey Goes to Leicester Square
DR13 -0.82 dB -17.93 dB 3:48 03-BourР№e
DR11 -0.17 dB -15.16 dB 3:54 04-Back to the Family
DR12 -1.09 dB -17.89 dB 4:24 05-Look into the Sun
DR12 -0.17 dB -16.12 dB 4:28 06-Nothing is Easy
DR13 -0.17 dB -17.06 dB 2:53 07-Fat Man
DR12 -0.17 dB -15.97 dB 4:04 08-We Used to Know
DR11 -2.00 dB -17.29 dB 4:08 09-Reasons for Waiting
DR11 -0.12 dB -12.60 dB 4:17 10-For a Thousand Mothers

Number of tracks: 10
Official DR value: DR11

Samplerate: 44100 Hz
Channels: 2
Bits per sample: 16
Bitrate: 829 kbps
Codec: FLAC

[CUETools log; Date: 06.07.2015 0:54:11; Version: 2.1.5]
[CTDB TOCID: Ga03m9EjzqxNCG.rjUYxiFaQbNo-] found.
Track | CTDB Status
1 | (6/6) Accurately ripped
2 | (6/6) Accurately ripped
3 | (6/6) Accurately ripped
4 | (6/6) Accurately ripped
5 | (6/6) Accurately ripped
6 | (6/6) Accurately ripped
7 | (6/6) Accurately ripped
8 | (6/6) Accurately ripped
9 | (6/6) Accurately ripped
10 | (6/6) Accurately ripped
[AccurateRip ID: 000e06f4-00711bc2-7708fa0a] found.
Track [ CRC | V2 ] Status
01 [357be764|438ef73a] (06+07/13) Accurately ripped
02 [603bde40|7f0df2c5] (06+07/13) Accurately ripped
03 [8875f954|c9feaff7] (05+07/12) Accurately ripped
04 [0a978d88|3479a6f3] (06+07/13) Accurately ripped
05 [2044fb03|f48118cf] (05+07/12) Accurately ripped
06 [754c4b7b|4401f14e] (06+07/13) Accurately ripped
07 [e1074190|e4ab1f28] (05+07/12) Accurately ripped
08 [f4108083|9d8c6c55] (06+07/13) Accurately ripped
09 [91c2c24f|20657daf] (05+07/12) Accurately ripped
10 [ef4ec411|e4e3a976] (05+07/12) Accurately ripped

Track Peak [ CRC32 ] [W/O NULL] [ LOG ]
-- 98,5 [F61F1625] [33EA1BF8] CRC32
01 98,0 [950467D1] [F20CBBEE]
02 98,0 [9C3571FB] [AEF86A04]
03 91,0 [D861F22A] [11558069]
04 98,0 [E8605712] [C5E05092]
05 88,2 [C1F4384B] [63F3F11F]
06 98,0 [41160512] [6715EF25]
07 98,0 [1F5DC8F6] [7C8F7F87]
08 98,0 [752DBDDE] [CA59DE36]
09 79,4 [47130292] [AC06B084]
10 98,5 [D7480E5A] [691A1B18]

* * * * *

http://i71.fastpic.ru/big/2015/0708/00/2df756b1b490081b2490414767a5f700.jpg

CD03: Jethro Tull - Benefit (1979)
EAC | Flac(Image) + Cue + Log & MP3 CBR 320Kbps
~ 260 or 103 Mb | Scans(600dpi, jpg) -> 62 Mb
Progressive Rock

"Benefit was the album on which the Jethro Tull sound solidified around folk music, abandoning blues entirely. Beginning with the opening number, "With You There to Help Me," Anderson adopts his now-familiar, slightly mournful folksinger/sage persona, with a rather sardonic outlook on life and the world; his acoustic guitar carries the melody, joined by Martin Barre's electric instrument for the crescendos. This would be the model for much of the material on Aqualung and especially Thick as a Brick, although the acoustic/electric pairing would be executed more effectively on those albums. Here the acoustic and electric instruments are merged somewhat better than they were on Stand Up (on which it sometimes seemed like Barre's solos were being played in a wholly different venue), and as needed, the electric guitars carry the melodies better than on previous albums. Most of the songs on Benefit display pleasant, delectably folk-like melodies attached to downbeat, slightly gloomy, but dazzlingly complex lyrics, with Barre's guitar adding enough wattage to keep the hard rock listeners very interested. "To Cry You a Song," "Son," and "For Michael Collins, Jeffrey and Me" all defined Tull's future sound: Barre's amp cranked up to ten (especially on "Son"), coming in above Anderson's acoustic strumming, a few unexpected changes in tempo, and Anderson spouting lyrics filled with dense, seemingly profound imagery and statements. As on Stand Up, the group was still officially a quartet, with future member John Evan (whose John Evan Band had become the nucleus of Jethro Tull two years before) appearing as a guest on keyboards; his classical training proved essential to the expanding of the group's sound on the three albums to come. Benefit was reissued in a remastered edition with bonus tracks at the end of 2001, which greatly improved the clarity of the playing and the richness of the sound; the four additional tracks are "Singing All Day," "Witch's Promise," the elegant, gossamer-textured "Just Trying to Be," and the original U.K. mix of "Teacher." Written and recorded prior to Benefit, they're all lighter in mood than the material from the original album, adding some greater variety but fitting in perfectly on a stylistic level.


by Bruce Eder , AMG
"


Tracklist:

01. With You There To Help Me (6:21)
02. Nothing To Say (5:16)
03. Alive And Well And Living In (2:49)
04. Son (2:52)
05. For Michael Collins, Jeffrey and Me (3:49)
06. To Cry You A Song (6:17)
07. A Time For Everything (2:45)
08. Inside (3:50)
09. Play In Time (3:50)
10. Sossity, You're A Woman (4:33)

Exact Audio Copy V0.99 prebeta 3 from 28. July 2007

EAC extraction logfile from 2. October 2012, 18:39

Jethro Tull / Benefit

Used drive : PIONEER DVD-RW DVR-118L Adapter: 0 ID: 0

Read mode : Secure
Utilize accurate stream : Yes
Defeat audio cache : Yes
Make use of C2 pointers : No

Read offset correction

: 6
Overread into Lead-In and Lead-Out : No
Fill up missing offset samples with silence : Yes
Delete leading and trailing silent blocks : No
Null samples used in CRC calculations : Yes
Used interface
: Installed external ASPI interface

Used output format : User Defined Encoder
Selected bitrate : 768 kBit/s
Quality : High
Add ID3 tag : No
Command line compressor : C:\Arquivos de programas\Exact Audio Copy\FLAC\FLAC.EXE
Additional command line options : -6 -V -T "ARTIST=%a" -T "TITLE=%t" -T "ALBUM=%g" -T "DATE=%y" -T "TRACKNUMBER=%n" -T "GENRE=%m" -T "COMMENT=%e" %s -o %d

TOC of the extracted CD Track | Start | Length | Start sector | End sector
--1 | 0:00.32 | 6:21.18 | 32 | 28624 2 | 6:21.50 | 5:16.30 | 28625 | 52354 3 | 11:38.05 | 2:49.30 | 52355 | 65059 4 | 14:27.35 | 2:52.05 | 65060 | 77964 5 | 17:19.40 | 3:49.22 | 77965 | 95161 6 | 21:08.62 | 6:17.28 | 95162 | 123464 7 | 27:26.15 | 2:45.45 | 123465 | 135884 8 | 30:11.60 | 3:50.37 | 135885 | 153171 9 | 34:02.22 | 3:50.73 | 153172 | 170494
10 | 37:53.20 | 4:33.25 | 170495 | 190994

Range status and errors

Selected range Filename C:\Documents and Settings\Administrador\Meus documentos\Jethro Tull - Benefit\Jethro Tull - Benefit.wav Peak level 98.3 %
Range quality 99.9 %
Test CRC 45267CF9
Copy CRC 45267CF9
Copy OK

No errors occurred


AccurateRip summary

Track 1 accurately ripped (confidence 5) [0B9EA6DB]
Track 2 accurately ripped (confidence 5) [E992693C]
Track 3 accurately ripped (confidence 5) [575BE12C]
Track 4 accurately ripped (confidence 4) [884D5A45]
Track 5 accurately ripped (confidence 4) [DD98E90A]
Track 6 accurately ripped (confidence 5) [D3E22321]
Track 7 accurately ripped (confidence 4) [9394022D]
Track 8 accurately ripped (confidence 5) 3EBC953
Track 9 accurately ripped (confidence 5) [7A67F118]
Track 10 accurately ripped (confidence 4) [D24B1CFE]

All tracks accurately ripped

End of status report

foobar2000 1.2.9 / Dynamic Range Meter 1.1.1
log date: 2015-07-06 14:51:13

Analyzed: Jethro Tull / Benefit

DR Peak RMS Duration Track

DR11 -2.77 dB -17.96 dB 6:21 01-With You There To Help Me
DR11 -1.10 dB -15.29 dB 5:16 02-Nothing To Say
DR11 -3.14 dB -17.74 dB 2:49 03-Alive And Well And Living In
DR12 -1.73 dB -16.86 dB 2:52 04-Son
DR11 -2.65 dB -18.22 dB 3:49 05-For Michael Collins, Jeffrey And Me
DR12 -0.37 dB -15.35 dB 6:17 06-To Cry You A Song
DR11 -0.14 dB -13.52 dB 2:46 07-A Time For Everything ?
DR13 -1.24 dB -17.33 dB 3:50 08-Inside
DR12 -0.88 dB -16.04 dB 3:51 09-Play In Time
DR13 -0.99 dB -17.61 dB 4:33 10-Sossity: You're A Woman

Number of tracks: 10
Official DR value: DR12

Samplerate: 44100 Hz
Channels: 2
Bits per sample: 16
Bitrate: 832 kbps
Codec: FLAC

[CUETools log; Date: 06.07.2015 0:54:39; Version: 2.1.5]
Pregap length 00:00:32.
[CTDB TOCID: TW2rdLMIatD8X2PaT2dh7US22yQ-] found.
Track | CTDB Status
1 | (1/1) Accurately ripped
2 | (1/1) Accurately ripped
3 | (1/1) Accurately ripped
4 | (1/1) Accurately ripped
5 | (1/1) Accurately ripped
6 | (1/1) Accurately ripped
7 | (1/1) Accurately ripped
8 | (1/1) Accurately ripped
9 | (1/1) Accurately ripped
10 | (1/1) Accurately ripped
[AccurateRip ID: 0010ae5b-0082c91a-7809f20a] found.
Track [ CRC | V2 ] Status
01 [0b9ea6db|548779ad] (06+08/14) Accurately ripped
02 [e992693c|10b2da42] (06+09/15) Accurately ripped
03 [575be12c|167df58f] (06+09/15) Accurately ripped
04 [884d5a45|ca1e3cff] (05+09/14) Accurately ripped
05 [dd98e90a|4a49676e] (05+09/14) Accurately ripped
06 [d3e22321|55006705] (06+09/15) Accurately ripped
07 [9394022d|a50976ac] (05+09/14) Accurately ripped
08 3ebc953|19a0057b (06+08/14) Accurately ripped
09 [7a67f118|706e4b03] (06+08/14) Accurately ripped
10 [d24b1cfe|4eeeaf8c] (05+09/14) Accurately ripped

Track Peak [ CRC32 ] [W/O NULL] [ LOG ]
-- 98,3 [45267CF9] [C1C4F946] CRC32
01 72,7 [333F1ACA] [CE257921]
02 88,0 EA01412 [5D28203D]
03 69,6 [06198F32] [F53387F5]
04 81,9 [CB5C82A1] B76CE3A
05 73,6 [4D3AD107] [91837169]
06 95,8 [22A74E76] [9B721718]
07 98,3 [6F355256] 4B4A812
08 86,7 [9035C69E] [7014E27C]
09 90,4 [172172D8] [E97354EE]
10 89,2 [D7B81F9A] [2E94590B]

http://i71.fastpic.ru/big/2015/0708/d5/e321ebf9bb7e423e45963676e87aa6d5.jpg

DOWNLOAD LINKS:
Buy Premium To Support Me & Get Resumable Support & Max Speed


Links are Interchangeable - No Password - Single Extraction

 
 
 
Dear visitor, you went to the site as an unregistered user. We encourage you to register or enter the site under your name.
 
   
 
 (Votes #: 0)