2013Zone For Latest Downloads

 
     
 
Legal Downloads » Music » Frank Zappa - Have I Offended Someone? (1997) {Rykodisc Remaster Complete Series}
Menu
Home Applications
Games Movies
Music TV Shows
Torrents Graphics

Sitemap

RSS
 
Advanced Search
Last News
Site Info
Top Contributors:
  1    supper88 32766
  2    admin 32651
  3    Whisky 10080
  4    Shark_ 8911
  5    creativelivenew 8706
  6    whathesupa 2799
  7    candymypost 840
  8    hvnteam 629
  9    vuong87 3


Articles:
  This Hour: 0
  Today: 0
  This Month: 13
  All Time: 515682


Torrents:
  Today: 0
  Yesterday: 0
  All Time: 156685


Membership:
  Registered Today :0
  This Hour:0
  This Month:0
  Total:14
  Banned:1

{online}
{inform_torrent}
Friend:
We Recomend
Trend
Trend
onlinemovies

Search In Site

Music : Frank Zappa - Have I Offended Someone? (1997) {Rykodisc Remaster Complete Series}
 

http://i72.fastpic.ru/big/2015/0708/74/22d6090108884c9681c6e6e7df4d3574.jpg
Frank Zappa - Have I Offended Someone? (1997) {Rykodisc Remaster Complete Series}
EAC rip (secure mode) | FLAC (tracks)+CUE+LOG -> 451 Mb | MP3 @320 -> 152 Mb
Full Artwork @ 300 dpi (png) -> 54 Mb | 5% repair rar
© 1997 Rykodisc / The Zappa Family Trust | RCD 10577
Rock / Jazz Rock / Experimental Rock / Art Rock

"Official Release #67. As the title suggests, Have I Offended Someone? contains all of Zappa's notoriously tasteless parodies and satires, from "Bobby Brown Goes Down," "Catholic Girls," and "Jewish Princess" to "He's So Gay," "Titties 'n Beer," and "Dinah-Moe Humm." Nearly all of the tracks are presented in new remixed versions, and two songs, "Dumb All Over" and "Tinsel Town Rebellion," have never been released before."

tracklist:
01 - Bobby Brown Goes Down (remixed)
02 - Disco Boy (reconstructed & remixed)
03 - Goblin Girl (VSO'd to slower speed)
04 - In France (remixed)
05 - He's So Gay
06 - SEX
07 - Titties 'N Beer (different edit)
08 - We're Turning Again (remixed)
09 - Dumb All Over (previously unreleased live version)
10 - Catholic Girls
11 - Dinah-Moe Humm (reconstructed & remixed)
12 - Tinsel Town Rebellion (previously unreleased live version)
13 - Valley Girl
14 - Jewish Princess
15 - Yo Cats (remixed)

Exact Audio Copy V1.0 beta 6 from 9. April 2015

EAC extraction logfile from 27. June 2015, 15:39

Frank Zappa / Have I Offended Someone?

Used drive : ATAPI iHAS124 B Adapter: 2 ID: 0

Read mode : Secure
Utilize accurate stream : Yes
Defeat audio cache : Yes
Make use of C2 pointers : No

Read offset correction

: 6
Overread into Lead-In and Lead-Out : No
Fill up missing offset samples with silence : Yes
Delete leading and trailing silent blocks : No
Null samples used in CRC calculations : Yes
Used interface
: Installed external ASPI interface
Gap handling
: Appended to previous track

Used output format : User Defined Encoder
Selected bitrate : 1024 kBit/s
Quality : High
Add ID3 tag : No
Command line compressor : C:\Program Files (x86)\FLAC Frontend\tools\flac.exe
Additional command line options : -8 -V -T "ARTIST=%artist%" -T "TITLE=%title%" -T "ALBUM=%albumtitle%" -T "DATE=%year%" -T "TRACKNUMBER=%tracknr%" -T "TOTALTRACKS=%numtracks%" -T "GENRE=%genre%" -T "ALBUMARTIST=%albumartist%" -T "ALBUM ARTIST=%albumartist%" -T "COMMENT=EAC Secure Mode, Test & Copy, AccurateRip, FLAC -8" %source%

TOC of the extracted CD Track | Start | Length | Start sector | End sector
--1 | 0:00.00 | 2:43.10 | 0 | 12234 2 | 2:43.10 | 4:23.12 | 12235 | 31971 3 | 7:06.22 | 4:19.18 | 31972 | 51414 4 | 11:25.40 | 3:30.42 | 51415 | 67206 5 | 14:56.07 | 2:45.03 | 67207 | 79584 6 | 17:41.10 | 3:44.00 | 79585 | 96384 7 | 21:25.10 | 4:37.15 | 96385 | 117174 8 | 26:02.25 | 4:56.52 | 117175 | 139426 9 | 30:59.02 | 5:43.45 | 139427 | 165196
10 | 36:42.47 | 3:51.65 | 165197 | 182586
11 | 40:34.37 | 7:14.00 | 182587 | 215136
12 | 47:48.37 | 4:24.18 | 215137 | 234954
13 | 52:12.55 | 4:50.42 | 234955 | 256746
14 | 57:03.22 | 3:15.15 | 256747 | 271386
15 | 60:18.37 | 3:32.50 | 271387 | 287336

Track 1 Filename D:\_EAC\Frank Zappa - Have I Offended Someone (1997) [FLAC] {Rykodisc Remaster Complete Series}\01 - Bobby Brown Goes Down (remixed).wav Pre-gap length 0:00:02.00 Peak level 100.0 %
Extraction speed 3.6 X
Track quality 100.0 %
Test CRC 94D356E2
Copy CRC 94D356E2
Accurately ripped (confidence 40) [8081BA52] (AR v2)
Copy OK

Track 2 Filename D:\_EAC\Frank Zappa - Have I Offended Someone (1997) [FLAC] {Rykodisc Remaster Complete Series}\02 - Disco Boy (reconstructed & remixed).wav Peak level 100.0 %
Extraction speed 4.2 X
Track quality 100.0 %
Test CRC 9121D2D8
Copy CRC 9121D2D8
Accurately ripped (confidence 41) C232625 (AR v2)
Copy OK

Track 3 Filename D:\_EAC\Frank Zappa - Have I Offended Someone (1997) [FLAC] {Rykodisc Remaster Complete Series}\03 - Goblin Girl (VSO'd to slower speed).wav Peak level 100.0 %
Extraction speed 4.6 X
Track quality 100.0 %
Test CRC 6EEC7BE0
Copy CRC 6EEC7BE0
Accurately ripped (confidence 41) [0EEB38F8] (AR v2)
Copy OK

Track 4 Filename D:\_EAC\Frank Zappa - Have I Offended Someone (1997) [FLAC] {Rykodisc Remaster Complete Series}\04 - In France (remixed).wav Peak level 95.5 %
Extraction speed 4.8 X
Track quality 100.0 %
Test CRC B0B4B1EE
Copy CRC B0B4B1EE
Accurately ripped (confidence 41) [006536D5] (AR v2)
Copy OK

Track 5 Filename D:\_EAC\Frank Zappa - Have I Offended Someone (1997) [FLAC] {Rykodisc Remaster Complete Series}\05 - He's So Gay.wav Peak level 100.0 %
Extraction speed 4.7 X
Track quality 100.0 %
Test CRC AA1137E6
Copy CRC AA1137E6
Accurately ripped (confidence 41) [1FA27333] (AR v2)
Copy OK

Track 6 Filename D:\_EAC\Frank Zappa - Have I Offended Someone (1997) [FLAC] {Rykodisc Remaster Complete Series}\06 - SEX.wav Peak level 99.1 %
Extraction speed 5.2 X
Track quality 100.0 %
Test CRC 0F434122
Copy CRC 0F434122
Accurately ripped (confidence 41) [00D43EB1] (AR v2)
Copy OK

Track 7 Filename D:\_EAC\Frank Zappa - Have I Offended Someone (1997) [FLAC] {Rykodisc Remaster Complete Series}\07 - Titties 'N Beer (different edit).wav Peak level 100.0 %
Extraction speed 4.6 X
Track quality 99.9 %
Test CRC 3024899C
Copy CRC 3024899C
Accurately ripped (confidence 40) [8C67050D] (AR v2)
Copy OK

Track 8 Filename D:\_EAC\Frank Zappa - Have I Offended Someone (1997) [FLAC] {Rykodisc Remaster Complete Series}\08 - We're Turning Again (remixed).wav Peak level 100.0 %
Extraction speed 6.0 X
Track quality 100.0 %
Test CRC C0E91C37
Copy CRC C0E91C37
Accurately ripped (confidence 40) [8B8C4598] (AR v2)
Copy OK

Track 9 Filename D:\_EAC\Frank Zappa - Have I Offended Someone (1997) [FLAC] {Rykodisc Remaster Complete Series}\09 - Dumb All Over (previously unreleased live version).wav Peak level 100.0 %
Extraction speed 5.4 X
Track quality 99.9 %
Test CRC D2846A2E
Copy CRC D2846A2E
Accurately ripped (confidence 40) [EF02B2B8] (AR v2)
Copy OK

Track 10 Filename D:\_EAC\Frank Zappa - Have I Offended Someone (1997) [FLAC] {Rykodisc Remaster Complete Series}\10 - Catholic Girls.wav Peak level 100.0 %
Extraction speed 6.4 X
Track quality 100.0 %
Test CRC 087E786D
Copy CRC 087E786D
Accurately ripped (confidence 40) [DE062452] (AR v2)
Copy OK

Track 11 Filename D:\_EAC\Frank Zappa - Have I Offended Someone (1997) [FLAC] {Rykodisc Remaster Complete Series}\11 - Dinah-Moe Humm (reconstructed & remixed).wav Peak level 100.0 %
Extraction speed 7.1 X
Track quality 100.0 %
Test CRC A9BECEB2
Copy CRC A9BECEB2
Accurately ripped (confidence 40) [0074DE92] (AR v2)
Copy OK

Track 12 Filename D:\_EAC\Frank Zappa - Have I Offended Someone (1997) [FLAC] {Rykodisc Remaster Complete Series}\12 - Tinsel Town Rebellion (previously unreleased live version).wav Peak level 100.0 %
Extraction speed 5.6 X
Track quality 99.9 %
Test CRC 9E3043F2
Copy CRC 9E3043F2
Accurately ripped (confidence 40) [C23E29D0] (AR v2)
Copy OK

Track 13 Filename D:\_EAC\Frank Zappa - Have I Offended Someone (1997) [FLAC] {Rykodisc Remaster Complete Series}\13 - Valley Girl.wav Peak level 88.3 %
Extraction speed 7.4 X
Track quality 100.0 %
Test CRC A87CDD60
Copy CRC A87CDD60
Accurately ripped (confidence 40) [E930B186] (AR v2)
Copy OK

Track 14 Filename D:\_EAC\Frank Zappa - Have I Offended Someone (1997) [FLAC] {Rykodisc Remaster Complete Series}\14 - Jewish Princess.wav Peak level 100.0 %
Extraction speed 5.4 X
Track quality 99.9 %
Test CRC EE191504
Copy CRC EE191504
Accurately ripped (confidence 40) [8DB4AF50] (AR v2)
Copy OK

Track 15 Filename D:\_EAC\Frank Zappa - Have I Offended Someone (1997) [FLAC] {Rykodisc Remaster Complete Series}\15 - Yo Cats (remixed).wav Peak level 100.0 %
Extraction speed 7.4 X
Track quality 100.0 %
Test CRC 8067F931
Copy CRC 8067F931
Accurately ripped (confidence 38) [C4F2283C] (AR v2)
Copy OK

All tracks accurately ripped

No errors occurred

End of status report

==== Log checksum E710B1BFA9138C4B72CD4B4329E8F183EC7C60B9C96BBF8BA1772D4636E53028 ====

http://i70.fastpic.ru/big/2015/0708/14/639939e44a5e4deadef003afd6f87814.jpg

http://i69.fastpic.ru/big/2015/0708/ed/73f2613a37831868875557e87dfee3ed.jpg

DOWNLOAD LINKS:
Buy Premium To Support Me & Get Resumable Support & Max Speed


Links are Interchangeable - No Password - Single Extraction

 
 
 
Dear visitor, you went to the site as an unregistered user. We encourage you to register or enter the site under your name.
 
   
 
 (Votes #: 0)