2013Zone For Latest Downloads

 
     
 
Legal Downloads » Music » Dan Doiron - Stand Back...I Don't Know How Loud This Thing Gets (2015)
Menu
Home Applications
Games Movies
Music TV Shows
Torrents Graphics

Sitemap

RSS
 
Advanced Search
Last News
Site Info
Top Contributors:
  1    supper88 32766
  2    admin 32651
  3    Whisky 10080
  4    Shark_ 8911
  5    creativelivenew 8706
  6    whathesupa 2799
  7    candymypost 840
  8    hvnteam 629
  9    vuong87 3


Articles:
  This Hour: 0
  Today: 0
  This Month: 13
  All Time: 515682


Torrents:
  Today: 0
  Yesterday: 0
  All Time: 156685


Membership:
  Registered Today :0
  This Hour:0
  This Month:0
  Total:14
  Banned:1

{online}
{inform_torrent}
Friend:
We Recomend
Trend
Trend
onlinemovies

Search In Site

ad1

Music : Dan Doiron - Stand Back...I Don't Know How Loud This Thing Gets (2015)
 
http://i69.fastpic.ru/big/2015/0708/0c/bce6823401dfeb4d86c231a9208aca0c.jpg

Dan Doiron - Stand Back...I Don't Know How Loud This Thing Gets (2015)
EAC Rip | FLAC (Img) + Cue + Log ~ 404 Mb | MP3 CBR320 ~ 141 Mb
Scans Included (JPG, 600 dpi) | RAR 5% Recovery
Blues-Rock, Electric Blues | Dan Doiron #888295238076

"Contemporary rock guitar riff inspired songs with delivered with emotional vocals and smart cliche free lyrics, a mixture of rock, blues, and funkin' fun. Think Gary Moore and Joe Bonamassa meet Huey Lewis!"

A blazing spitfire guitarist with a six-string wall of sound who combines traditional and modern blues influences to create his driving sound and energetic show. Dan Doiron has been addicted to the raw energy of the electric guitar since he formed his first band at age 13 in Port Hood, Cape Breton. In fact some people say they don't recognize him without a guitar strapped on. His unique sound reflects his diverse background in rock, blues and classical guitar.
For over 20 years he has been involved in the music industry in Atlantic Canada as a musician, music educator,(B.MUS.Ed from Dalhousie University with a major in classical guitar), National guitar clinician and recording engineer.
In April 2011 Dan stepped out as a solo recording artist, and immediately joined the top tier of regional blues players, earning an ECMA nomination and Music Nova Scotia nomination for his debut CD, "Even My Guitar Is In Love With You".
The sophomore album, "From Deep Inside", was released in May 2013, and has been described as "A confident, smokin' set full of hot leads, a variety of styles, and best of all, lots of cliche-free originals. Doiron plays it full of energy, moving in and out of funk, rock, and scorching blues ballads." The new album was also nominated for a 2013 Music Nova Scotia award for Blues album of the Year, and has also just been nominated for a 2014 East Coast Music Award for Blues Recording of the Year.
In October 2013 the band won the East Coast Music Association's "Maritimes to Memphis Blues Challenge". As a result they represented Atlantic Canada at the 2014 International Blues Challenge in Memphis, known as the premiere Blues event in the world! Now in May 2015 Dan is releasing his new album inspired by the trip to Memphis....."Stand Back...I Don't Know How Loud This Thing Gets!"
"As my journey as a musician continues, I am aware of what a great privilege it is to perform and share my music and stories with my audience.... thanks to everyone who inspires me to Dream Big and Play Loud...."
~ cdbaby
Official Website
***************

http://i71.fastpic.ru/big/2015/0708/cc/bb08ab457d9bf15ce47d863cb93912cc.jpg

Track List:

01. You Give Me Shivers [04:24]
02. My Kind Of Trouble [04:09]
03. Killing Each Other Trying To Get Into Heaven [04:59]
04. Stand Back I Don't Know How Loud This Thing Gets [04:27]
05. Don't You Know Who I think I Am [04:12]
06. Dance Naked [04:44]
07. Painted Up [04:12]
08. Slippin' Back Into The Dip [05:17]
09. Tango Girl [04:51]
10. Once And For All [05:09]

Exact Audio Copy V1.0 beta 3 from 29. August 2011

Отчёт EAC об извлечении, выполненном 29. июня 2015, 20:30

Dan Doiron / Stand Back...I Don't Know How Loud This Thing Gets..

Дисковод: PLEXTOR DVDR PX-880SA Adapter: 1 ID: 0

Режим чтения : Достоверность
?спользование точного потока : Да
Отключение кэ?а аудио : Да
?спользование указателей C2 : Нет

Коррекция смещения при чтении : 6
Способность читать области Lead-in и Lead-out : Нет
Заполнение пропущенных сэмплов ти?иной : Да
Удаление блоков с ти?иной в начале и конце : Нет
При вычислениях CRC использовались нулевые сэмплы : Да
?нтерфейс : Установленный вне?ний ASPI-интерфейс

Выходной формат : Пользовательский кодировщик
Выбранный битрейт : 1024 kBit/s
Качество : Высокий
Добавление ID3-тега : Нет
Утилита сжатия : C:\Program Files\Exact Audio Copy\FLAC\FLAC.EXE
Дополнительные параметры : -10 -V -T "ARTIST=%artist%" -T "ALBUM=%albumtitle%" -T "DATE=%year%" -T "GENRE=%genre%" -T "COMMENT=ripped by izia1956" %source%

TOC извлечённого CD Трек | Старт | Длительность | Начальный сектор | Конечный сектор

1 | 0:00.00 | 4:23.43 | 0 | 19767
2 | 4:23.43 | 4:08.47 | 19768 | 38414
3 | 8:32.15 | 4:58.15 | 38415 | 60779
4 | 13:30.30 | 4:26.41 | 60780 | 80770
5 | 17:56.71 | 4:11.52 | 80771 | 99647
6 | 22:08.48 | 4:43.28 | 99648 | 120900
7 | 26:52.01 | 4:11.41 | 120901 | 139766
8 | 31:03.42 | 5:16.20 | 139767 | 163486
9 | 36:19.62 | 4:50.38 | 163487 | 185274
10 | 41:10.25 | 5:08.28 | 185275 | 208402

Характеристики диапазона извлечения и сообщения об о?ибках

Выбранный диапазон ?мя файла D:\BitComet\Dan Doiron (flac)\2015 - Stand Back...I Don't Know How Loud This Thing Gets\Dan Doiron - Stand Back...I Don't Know How Loud This Thing Gets...wav Пиковый уровень 98.9 %
Скорость извлечения 2.8 X
Качество диапазона 100.0 %
CRC теста AD85A77C
CRC копии AD85A77C
Копирование... OK

О?ибок не произо?ло


AccurateRip: сводка

Трек 1 отсутствует в базе данных
Трек 2 отсутствует в базе данных
Трек 3 отсутствует в базе данных
Трек 4 отсутствует в базе данных
Трек 5 отсутствует в базе данных
Трек 6 отсутствует в базе данных
Трек 7 отсутствует в базе данных
Трек 8 отсутствует в базе данных
Трек 9 отсутствует в базе данных
Трек 10 отсутствует в базе данных

Ни одного трека нет в базе AccurateRip

Конец отчёта

==== Контрольная сумма отчёта 39D37D57A99065AF9E32D70847A94D885F23FF6399398C626B93547A953401DB ====

foobar2000 1.2.6 / Dynamic Range Meter 1.1.1
log date: 2015-07-05 20:36:46

Analyzed: Dan Doiron / Stand Back...I Don't Know How Loud This Thing Gets..

DR Peak RMS Duration Track

DR7 -0.09 dB -7.73 dB 4:24 01-You Give Me Shivers
DR6 -0.09 dB -6.76 dB 4:09 02-My Kind Of Trouble
DR7 -0.09 dB -7.54 dB 4:58 03-Killing Each Other Trying To Get Into Heaven
DR7 -0.09 dB -7.37 dB 4:27 04-Stand Back I Don't Know How Loud This Thing Gets
DR7 -0.09 dB -8.10 dB 4:12 05-Don't You Know Who I think I Am
DR6 -0.09 dB -6.73 dB 4:43 06-Dance Naked
DR7 -0.09 dB -7.70 dB 4:12 07-Painted Up
DR7 -0.10 dB -8.10 dB 5:16 08-Slippin' Back Into The Dip
DR7 -0.09 dB -8.20 dB 4:51 09-Tango Girl
DR7 -0.09 dB -7.59 dB 5:08 10-Once And For All

Number of tracks: 10
Official DR value: DR7

Samplerate: 44100 Hz
Channels: 2
Bits per sample: 16
Bitrate: 1076 kbps
Codec: FLAC

[CUETools log; Date: 05.07.2015 20:35:22; Version: 2.1.5]
[CTDB TOCID: VaKfCoX8_egyqp0hKpcM9qOBaw4-] found.
Track | CTDB Status
1 | (1/1) Accurately ripped
2 | (1/1) Accurately ripped
3 | (1/1) Accurately ripped
4 | (1/1) Accurately ripped
5 | (1/1) Accurately ripped
6 | (1/1) Accurately ripped
7 | (1/1) Accurately ripped
8 | (1/1) Accurately ripped
9 | (1/1) Accurately ripped
10 | (1/1) Accurately ripped
[AccurateRip ID: 00110c1f-008908ae-760ada0a] disk not present in database.

Track Peak [ CRC32 ] [W/O NULL] [ LOG ]
-- 98,9 [AD85A77C] [665BC0E2] CRC32
01 98,9 [E3EF387C] [171739CB]
02 98,9 [F0177F35] [12F2D819]
03 98,9 [4DE703BB] [A56F5D40]
04 98,9 [D42B7EAF] [147586B1]
05 98,9 3DE50E6 [CA62BD4E]
06 98,9 [811EFBC0] [3CFD7DE4]
07 98,9 [7B134024] [E3BAD220]
08 98,9 [DC0C98B1] [D8260801]
09 98,9 [27D7B18A] [F9335132]
10 98,9 [EF667042] [9688898E]

http://i72.fastpic.ru/big/2015/0708/e6/de2a95d933e2e28056bac823c2ad51e6.jpg


DOWNLOAD LINKS:
Buy Premium To Support Me & Get Resumable Support & Max Speed


Links are Interchangeable - No Password - Single Extraction

 
 
 
Dear visitor, you went to the site as an unregistered user. We encourage you to register or enter the site under your name.
 
   
 
 (Votes #: 0)