2013Zone For Latest Downloads

 
     
 
Legal Downloads » Music » David Bowie - Diamond Dogs (1974) [2007, EMI TOCP-70147, Japan]
Menu
Home Applications
Games Movies
Music TV Shows
Torrents Graphics

Sitemap

RSS
 
Advanced Search
Last News
Site Info
Top Contributors:
  1    supper88 32766
  2    admin 32651
  3    Whisky 10080
  4    Shark_ 8911
  5    creativelivenew 8706
  6    whathesupa 2799
  7    candymypost 840
  8    hvnteam 629
  9    vuong87 3


Articles:
  This Hour: 0
  Today: 0
  This Month: 13
  All Time: 515682


Torrents:
  Today: 0
  Yesterday: 0
  All Time: 156685


Membership:
  Registered Today :0
  This Hour:0
  This Month:0
  Total:14
  Banned:1

{online}
{inform_torrent}
Friend:
We Recomend
Trend
Trend
onlinemovies

Search In Site

Music : David Bowie - Diamond Dogs (1974) [2007, EMI TOCP-70147, Japan]
 
http://i69.fastpic.ru/big/2015/0708/ea/08a3a544177ac766c8fae02f70b9a4ea.jpg

David Bowie - Diamond Dogs (1974)
EAC | Flac(Image) + Cue + Log & MP3 CBR 320Kbps
EMI, TOCP-70147 | ~ 283 or 111 Mb | Scans Included
Classic Rock / Glam

"David Bowie fired the Spiders From Mars shortly after the release of Pin Ups, but he didn't completely leave the Ziggy Stardust persona behind. Diamond Dogs suffers precisely because of this -- he doesn't know how to move forward. Originally conceived as a concept album based on George Orwell's 1984, Diamond Dogs evolved into another one of Bowie's paranoid future nightmares..."


Tracklist:

01. Future Legend (01:08)
02. Diamond Dogs (05:58)
03. Sweet Thing (03:39)
04. Candidate (02:40)
05. Sweet Thing(Reprise) (02:32)
06. Rebel Rebel (04:34)
07. Rock 'n' Roll with Me (04:02)
08. We Are the Dead (04:59)
09. 1984 (03:27)
10. Big Brother (03:20)
11. Chant of the Ever Circling Skeletal Family (02:04)

Exact Audio Copy V0.99 prebeta 3 from 28. July 2007

EAC extraction logfile from 20. June 2008, 16:40

David Bowie / Diamond Dogs

Used drive : HL-DT-STDVDRAM GMA-4082N Adapter: 1 ID: 0

Read mode : Secure
Utilize accurate stream : Yes
Defeat audio cache : Yes
Make use of C2 pointers : No

Read offset correction

: 667
Overread into Lead-In and Lead-Out : No
Fill up missing offset samples with silence : Yes
Delete leading and trailing silent blocks : No
Null samples used in CRC calculations : Yes
Used interface
: Installed external ASPI interface

Used output format : Internal WAV Routines
Sample format : 44.100 Hz; 16 Bit; Stereo

TOC of the extracted CD Track | Start | Length | Start sector | End sector
--1 | 0:00.00 | 1:08.00 | 0 | 5099 2 | 1:08.00 | 5:58.10 | 5100 | 31959 3 | 7:06.10 | 3:38.50 | 31960 | 48359 4 | 10:44.60 | 2:40.07 | 48360 | 60366 5 | 13:24.67 | 2:32.13 | 60367 | 71779 6 | 15:57.05 | 4:33.67 | 71780 | 92321 7 | 20:30.72 | 4:01.59 | 92322 | 110455 8 | 24:32.56 | 4:59.21 | 110456 | 132901 9 | 29:32.02 | 3:27.28 | 132902 | 148454
10 | 32:59.30 | 3:20.35 | 148455 | 163489
11 | 36:19.65 | 2:03.70 | 163490 | 172784

Range status and errors

Selected range Filename C:\David Bowie - Diamond Dogs\David Bowie - Diamond Dogs.wav Peak level 97.8 %
Range quality 100.0 %
Copy CRC 17FA037D
Copy OK

No errors occurred


AccurateRip summary

Track 1 not present in database
Track 2 not present in database
Track 3 not present in database
Track 4 not present in database
Track 5 not present in database
Track 6 not present in database
Track 7 not present in database
Track 8 not present in database
Track 9 not present in database
Track 10 not present in database
Track 11 not present in database

None of the tracks are present in the AccurateRip database

End of status report

foobar2000 1.2.9 / Dynamic Range Meter 1.1.1
log date: 2015-07-05 21:13:13

Analyzed: David Bowie / Diamond Dogs

DR Peak RMS Duration Track

DR9 -1.51 dB -15.22 dB 1:08 01-Future Legend
DR9 -0.84 dB -11.25 dB 5:58 02-Diamond Dogs
DR9 -0.19 dB -12.40 dB 3:39 03-Sweet Thing
DR9 -1.15 dB -12.20 dB 2:40 04-Candidate
DR9 -0.98 dB -12.54 dB 2:32 05-Sweet Thing (Reprise)
DR11 -0.75 dB -12.69 dB 4:34 06-Rebel Rebel
DR10 -0.93 dB -12.69 dB 4:02 07-Rock 'n' Roll with Me
DR11 -0.44 dB -13.96 dB 4:59 08-We Are the Dead
DR10 -1.15 dB -12.91 dB 3:27 09-1984
DR9 -1.06 dB -13.30 dB 3:20 10-Big Brother
DR10 -0.95 dB -13.50 dB 2:04 11-Chant of the Ever Circling Skeletal Family

Number of tracks: 11
Official DR value: DR10

Samplerate: 44100 Hz
Channels: 2
Bits per sample: 16
Bitrate: 929 kbps
Codec: FLAC

[CUETools log; Date: 05.07.2015 21:13:49; Version: 2.1.4]
[CTDB TOCID: 26_LUdXZW29dBFaSXFKeNcv0dKE-] found.
Track | CTDB Status
1 | (10/10) Accurately ripped
2 | (10/10) Accurately ripped
3 | (10/10) Accurately ripped
4 | (10/10) Accurately ripped
5 | (10/10) Accurately ripped
6 | (10/10) Accurately ripped
7 | (10/10) Accurately ripped
8 | ( 8/10) Accurately ripped, or (2/10) differs in 831 samples @00:08:01-00:08:02
9 | (10/10) Accurately ripped
10 | (10/10) Accurately ripped
11 | (10/10) Accurately ripped
[AccurateRip ID: 000fd699-008b1330-9608ff0b] found.
Track [ CRC | V2 ] Status
01 d30e0e9|8be6768a (07+09/24) Accurately ripped
02 [f10c3b81|c3a8f71c] (07+09/24) Accurately ripped
03 [414e5f84|dc6dc945] (07+09/24) Accurately ripped
04 e2e437b|8b9e2245 (07+09/24) Accurately ripped
05 [2b28e516|960b8371] (07+09/24) Accurately ripped
06 [c8c6fbe1|8192253e] (07+09/24) Accurately ripped
07 [24a9a397|794925f6] (07+09/24) Accurately ripped
08 44857b4|244a899d (06+09/23) Accurately ripped
09 [ef02e1b9|7c7975f1] (07+09/24) Accurately ripped
10 [112a3a3b|28a991dc] (06+09/23) Accurately ripped
11 125be4b|704829ad (07+09/24) Accurately ripped
Offsetted by 3:
01 [5d694fa4] (03/24) Accurately ripped
02 [f004e3fd] (03/24) Accurately ripped
03 [16b8db2a] (03/24) Accurately ripped
04 f28179a (03/24) Accurately ripped
05 [f554c32d] (03/24) Accurately ripped
06 [75fe57d8] (03/24) Accurately ripped
07 [c281dd3f] (03/24) Accurately ripped
08 [eddf8678] (03/23) Accurately ripped
09 [6fd5e190] (03/24) Accurately ripped
10 [c7f5c17b] (03/23) Accurately ripped
11 [e0d4e66f] (03/24) Accurately ripped

Track Peak [ CRC32 ] [W/O NULL] [ LOG ]
-- 97,8 [17FA037D] [D53620F4] CRC32
01 84,0 [7E2CE422] [977D4112]
02 90,8 [7824AEDB] [059CD177]
03 97,8 [F9878AB2] [34DAA88D]
04 87,6 [C563EB30] [6FF9A1C5]
05 89,3 [F975CEBF] [DE914980]
06 91,6 [10F37DC2] [9E7FF556]
07 89,8 [2871A579] EC7AC1B
08 95,0 [DEA318F6] [CAFC011E]
09 87,6 [A35007F0] [8714F791]
10 88,5 [E1F24936] [F9E1026D]
11 89,6 [FE3ED1FC] [D63ED054]

http://i70.fastpic.ru/big/2015/0708/6e/90ce475af03a1e1f7d23557276cc486e.jpg

DOWNLOAD LINKS:
Buy Premium To Support Me & Get Resumable Support & Max Speed


Links are Interchangeable - No Password - Single Extraction

 
 
 
Dear visitor, you went to the site as an unregistered user. We encourage you to register or enter the site under your name.
 
   
 
 (Votes #: 0)