2013Zone For Latest Downloads

 
     
 
Legal Downloads » Music » Patrick Cowley - Megatron Man (1981) [2005, Reissue]
Menu
Home Applications
Games Movies
Music TV Shows
Torrents Graphics

Sitemap

RSS
 
Advanced Search
Last News
Site Info
Top Contributors:
  1    supper88 32766
  2    admin 32711
  3    Whisky 10080
  4    Shark_ 8911
  5    creativelivenew 8706
  6    whathesupa 2799
  7    candymypost 840
  8    hvnteam 629
  9    vuong87 3


Articles:
  This Hour: 0
  Today: 0
  This Month: 0
  All Time: 515503


Torrents:
  Today: 0
  Yesterday: 0
  All Time: 156678


Membership:
  Registered Today :0
  This Hour:0
  This Month:0
  Total:14
  Banned:1

{online}
{inform_torrent}
Friend:
Full Download Scripts
Torrent Download
Trend
Trend

Search In Site

Music : Patrick Cowley - Megatron Man (1981) [2005, Reissue]
 
http://i72.fastpic.ru/big/2015/0710/b3/0bab0f8af2fa2e795bf3b365ee9e2db3.jpg

Patrick Cowley - Megatron Man (1981/2005)
EAC Rip | FLAC (Img) + Cue + Log ~ 607 Mb | MP3 CBR320 ~ 211 Mb
Scans Included (JPG, 600 dpi) | RAR 5% Recovery
Disco, Electronic, Hi-NRG, Synth-Pop | Unidisc Music #SPLK-7052

"Patrick Joseph Cowley (October 19, 1950 - November 12, 1982) was an American disco and Hi-NRG dance music composer and recording artist. Besides Giorgio Moroder, he is frequently credited with pioneering electronic dance music. Cowley's own hits included "Menergy" in 1981, and "Megatron Man", which hit #1 and #2 respectively on the Billboard Hot Dance Music/Club Play chart in 1981. That same year, Patrick Cowley became the DJ at the "Menergy" parties at The EndUp in San Francisco. He also wrote and produced the dance single "Right on Target" for San Francisco artist Paul Parker, which also reached #1 on the Billboard dance chart in 1982. A collaboration with Sylvester, "Do Ya Wanna Funk", made #4 on the Billboard dance chart that same year. Cowley also did a 15'45" long remix of Donna Summer's "I Feel Love", which is now a collector's item..."

Wiki | Discogs | All Music
***************

http://i72.fastpic.ru/big/2015/0710/72/1bf290643dd9a363eaeb91e0fbc7f972.jpg

Track List:

01. Megatron Man [09:09]
02. Thank God For Music [05:27]
03. Menergy [08:51]
04. Get A Little [06:08]
05. Lift Off [08:18]
06. I Wanna Take You Home [07:41]
07. Sea Hunt [07:59]
08. Teen Planet [03:25]
09. If You Feel It [07:25]
10. Megatron Man '87 [06:51]
11. Megatron Man (Radio Edit) [04:00]

Exact Audio Copy V1.1 from 23. June 2015

EAC extraction logfile from 5. July 2015, 19:12

Patrick Cowley / Megatron Man

Used drive : SlimtypeeTAU108 2 Adapter: 1 ID: 1

Read mode : Secure
Utilize accurate stream : Yes
Defeat audio cache : Yes
Make use of C2 pointers : No

Read offset correction

: 6
Overread into Lead-In and Lead-Out : No
Fill up missing offset samples with silence : Yes
Delete leading and trailing silent blocks : No
Null samples used in CRC calculations : Yes
Used interface
: Native Win32 interface for Win NT & 2000

Used output format : User Defined Encoder
Selected bitrate : 1024 kBit/s
Quality : High
Add ID3 tag : No
Command line compressor : C:\Program Files\Exact Audio Copy 1.1\Flac\flac.exe
Additional command line options : -8 -V -T "ARTIST=%artist%" -T "TITLE=%title%" -T "ALBUM=%albumtitle%" -T "DATE=%year%" -T "TRACKNUMBER=%tracknr%" -T "GENRE=%genre%" -T "COMMENT=%comment%" -T "ALBUMARTIST=%albuminterpret%" -T "DISCNUMBER=%cdnumber%" -T "TOTALDISCS=%totalcds%" -T "TOTALTRACKS=%numtracks%" %source% -o %dest%

TOC of the extracted CD Track | Start | Length | Start sector | End sector
--1 | 0:00.00 | 9:08.26 | 0 | 41125 2 | 9:08.26 | 5:26.68 | 41126 | 65643 3 | 14:35.19 | 8:50.51 | 65644 | 105444 4 | 23:25.70 | 6:07.26 | 105445 | 132995 5 | 29:33.21 | 8:17.07 | 132996 | 170277 6 | 37:50.28 | 7:40.03 | 170278 | 204780 7 | 45:30.31 | 7:58.05 | 204781 | 240635 8 | 53:28.36 | 3:24.23 | 240636 | 255958 9 | 56:52.59 | 7:24.35 | 255959 | 289293
10 | 64:17.19 | 6:50.13 | 289294 | 320056
11 | 71:07.32 | 3:59.03 | 320057 | 337984

Range status and errors

Selected range Filename C:\Temp\Patrick Cowley - Megatron Man (1981).wav Peak level 100.0 %
Extraction speed 5.0 X
Range quality 100.0 %
Test CRC 1771B249
Copy CRC 1771B249
Copy OK

No errors occurred


AccurateRip summary

Track 1 accurately ripped (confidence 3) [272D0564] (AR v2)
Track 2 accurately ripped (confidence 3) [5B638F78] (AR v2)
Track 3 accurately ripped (confidence 3) C4C0490 (AR v2)
Track 4 accurately ripped (confidence 3) [C598D848] (AR v2)
Track 5 accurately ripped (confidence 3) [F404FE93] (AR v2)
Track 6 accurately ripped (confidence 3) [6DDF4CA2] (AR v2)
Track 7 accurately ripped (confidence 3) [FFC19CB0] (AR v2)
Track 8 accurately ripped (confidence 3) [F04EB305] (AR v2)
Track 9 accurately ripped (confidence 3) [A2F23904] (AR v2)
Track 10 accurately ripped (confidence 3) [90B295B9] (AR v2)
Track 11 accurately ripped (confidence 3) [194346AD] (AR v2)

All tracks accurately ripped

End of status report

- CUETools DB Plugin V2.1.6

[CTDB TOCID: HkCILhQurKyeZPrvWOt55VeG6aU-] found
Submit result: HkCILhQurKyeZPrvWOt55VeG6aU- has been confirmed
Track | CTDB Status
1 | (3/3) Accurately ripped
2 | (3/3) Accurately ripped
3 | (3/3) Accurately ripped
4 | (3/3) Accurately ripped
5 | (3/3) Accurately ripped
6 | (3/3) Accurately ripped
7 | (3/3) Accurately ripped
8 | (3/3) Accurately ripped
9 | (3/3) Accurately ripped
10 | (3/3) Accurately ripped
11 | (3/3) Accurately ripped

==== Log checksum 797071012C8B395C76B6A28205D817472416B0490320DA41499B0FC10F3F281E ====

foobar2000 1.2.6 / Dynamic Range Meter 1.1.1
log date: 2015-07-07 05:05:56

Analyzed: Patrick Cowley / Megatron Man

DR Peak RMS Duration Track

DR10 0.00 dB -11.65 dB 9:08 01-Megatron Man
DR10 0.00 dB -10.82 dB 5:27 02-Thank God For Music
DR9 0.00 dB -10.49 dB 8:51 03-Menergy
DR10 0.00 dB -10.96 dB 6:07 04-Get A Little
DR9 -0.18 dB -10.75 dB 8:17 05-Lift Off
DR8 0.00 dB -9.27 dB 7:40 06-I Wanna Take You Home
DR6 -0.21 dB -8.45 dB 7:58 07-Sea Hunt
DR8 0.00 dB -8.51 dB 3:24 08-Teen Planet
DR9 -0.46 dB -10.39 dB 7:24 09-If You Feel It
DR7 -0.20 dB -9.08 dB 6:50 10-Megatron Man '87
DR11 0.00 dB -12.25 dB 3:59 11-Megatron Man (Radio Edit)

Number of tracks: 11
Official DR value: DR9

Samplerate: 44100 Hz
Channels: 2
Bits per sample: 16
Bitrate: 1022 kbps
Codec: FLAC

[CUETools log; Date: 07.07.2015 5:01:48; Version: 2.1.5]
[CTDB TOCID: HkCILhQurKyeZPrvWOt55VeG6aU-] found.
Track | CTDB Status
1 | (4/4) Accurately ripped
2 | (4/4) Accurately ripped
3 | (4/4) Accurately ripped
4 | (4/4) Accurately ripped
5 | (4/4) Accurately ripped
6 | (4/4) Accurately ripped
7 | (4/4) Accurately ripped
8 | (4/4) Accurately ripped
9 | (4/4) Accurately ripped
10 | (4/4) Accurately ripped
11 | (4/4) Accurately ripped
[AccurateRip ID: 002105e9-011a9492-9d119a0b] found.
Track [ CRC | V2 ] Status
01 [524e4604|272d0564] (0+3/3) Accurately ripped
02 [286d7a05|5b638f78] (0+3/3) Accurately ripped
03 [e2b0e2cc|bc4c0490] (0+3/3) Accurately ripped
04 [68325da9|c598d848] (0+3/3) Accurately ripped
05 [3ad37bd1|f404fe93] (0+3/3) Accurately ripped
06 [7f8da181|6ddf4ca2] (0+3/3) Accurately ripped
07 5050ea3|ffc19cb0 (0+3/3) Accurately ripped
08 fa66607|f04eb305 (0+3/3) Accurately ripped
09 [1da1f40c|a2f23904] (0+3/3) Accurately ripped
10 [e5d2b949|90b295b9] (0+3/3) Accurately ripped
11 [89297601|194346ad] (0+3/3) Accurately ripped

Track Peak [ CRC32 ] [W/O NULL] [ LOG ]
-- 100,0 [1771B249] [020605F7] CRC32
01 100,0 [2E775B84] [45BCFDF8]
02 100,0 [91738C2B] [FDD4B668]
03 100,0 [92ECE0E3] [5AF5AF81]
04 99,9 [8C7B14A1] [3961E229]
05 97,9 [74799EB1] [EBA0A399]
06 100,0 F7552BB [1534E96E]
07 97,6 [AF28A945] [4E48CB16]
08 100,0 [6EB8E997] [ECC9D8CF]
09 94,7 [314F6C45] [05A4BA86]
10 97,7 1D231C5 [AB9E22DE]
11 100,0 [E0FC5D39] [70B119E9]

http://i70.fastpic.ru/big/2015/0710/ee/caeb722b64a1618c1d1c546af18cd8ee.jpg

All thanks go to Ptaha


DOWNLOAD LINKS:
Buy Premium To Support Me & Get Resumable Support & Max Speed


Links are Interchangeable - No Password - Single Extraction

Patrick Cowley - Megatron Man (1981) [2005, Reissue] Fast Download



 
 
 
Dear visitor, you went to the site as an unregistered user. We encourage you to register or enter the site under your name.
 
   
 
 (Votes #: 0)