2013Zone For Latest Downloads

 
     
 
Legal Downloads » Music » Yak - The Rutland Chronicles (2006)
Menu
Home Applications
Games Movies
Music TV Shows
Torrents Graphics

Sitemap

RSS
 
Advanced Search
Last News
Site Info
Top Contributors:
  1    supper88 32766
  2    admin 32711
  3    Whisky 10080
  4    Shark_ 8911
  5    creativelivenew 8706
  6    whathesupa 2799
  7    candymypost 840
  8    hvnteam 629
  9    vuong87 3


Articles:
  This Hour: 0
  Today: 0
  This Month: 12
  All Time: 515503


Torrents:
  Today: 0
  Yesterday: 0
  All Time: 156678


Membership:
  Registered Today :0
  This Hour:0
  This Month:0
  Total:14
  Banned:1

{online}
{inform_torrent}
Friend:
Full Download Scripts
Torrent Download
Trend
Trend

Search In Site

Music : Yak - The Rutland Chronicles (2006)
 
http://i72.fastpic.ru/big/2015/0718/f3/6378d444973681cfe0d36209d3619ef3.jpg

Yak - The Rutland Chronicles (2006)
EAC Rip | FLAC (Img) + Cue + Log ~ 431 Mb | MP3 CBR320 ~ 176 Mb
Scans Included (JPG, 300 dpi) | RAR 5% Recovery
Progressive Rock, Jam Band | Yaksongs

"The Rutland Chronicles ...a live jam. This was recorded a year after "Does your Yak Bite?" and was the 2nd time we played together - this is another Jam session with some materials later developed as tracks on Journey of the Yak which was recorded 2 years later. Please Note - this album should not be played to small children or in a car with people you don't know and is really for "completionists" - contains improvisation & was recorded in Lo-Fi on a "Cassette Recorder" - an ancient type of recording facility. Digitised at Ruskin Road Studios, Northampton."


Track List:

01. Portal Honey [12:54]
02. Bastante L/S [02:26]
03. Dearly Departed Take 2 [03:36]
04. The Moon Was Clinically Depressed [07:51]
05. Yak's Bolero [06:00]
06. Latin Eighth [06:11]
07. Why Smiley [02:08]
08. Misty Mountains [08:23]
09. Intro To Zea's Song [01:00]
10. Lady Solitude [02:49]
11. Good Evening And Tonight's Spot Prize Will Be... [05:26]
12. Sleazy Dealer [07:56]
13. Rif Riff take 2 [02:04]

Guitar - Robin Hodder
Drums - John Wynn
Bass - Max Johnson
Keys - Martin Morgan

Exact Audio Copy V0.99 prebeta 5 from 4. May 2009

EAC extraction logfile from 1. June 2010, 0:04

Yak / The Rutland Chronicles

Used drive : ASUS DRW-24B1LT Adapter: 1 ID: 1

Read mode : Secure
Utilize accurate stream : Yes
Defeat audio cache : Yes
Make use of C2 pointers : No

Read offset correction

: 6
Overread into Lead-In and Lead-Out : No
Fill up missing offset samples with silence : Yes
Delete leading and trailing silent blocks : No
Null samples used in CRC calculations : Yes
Used interface
: Native Win32 interface for Win NT & 2000

Used output format : User Defined Encoder
Selected bitrate : 1024 kBit/s
Quality : High
Add ID3 tag : Yes
Command line compressor : C:\Program Files (x86)\FLAC\flac.exe
Additional command line options : -6 -V -T "ARTIST=%a" -T "TITLE=%t" -T "ALBUM=%g" -T "DATE=%y" -T "TRACKNUMBER=%n" -T "GENRE=%m" -T "COMMENT=%e" %s -o %d

TOC of the extracted CD Track | Start | Length | Start sector | End sector
--1 | 0:00.00 | 12:53.09 | 0 | 57983 2 | 12:53.09 | 2:25.50 | 57984 | 68908 3 | 15:18.59 | 3:35.25 | 68909 | 85058 4 | 18:54.09 | 7:50.68 | 85059 | 120376 5 | 26:45.02 | 5:59.12 | 120377 | 147313 6 | 32:44.14 | 6:10.16 | 147314 | 175079 7 | 38:54.30 | 2:07.45 | 175080 | 184649 8 | 41:02.00 | 8:22.63 | 184650 | 222362 9 | 49:24.63 | 0:59.61 | 222363 | 226848
10 | 50:24.49 | 2:48.70 | 226849 | 239518
11 | 53:13.44 | 5:25.01 | 239519 | 263894
12 | 58:38.45 | 7:55.27 | 263895 | 299546
13 | 66:33.72 | 2:03.29 | 299547 | 308800

Range status and errors

Selected range Filename Y:\EAC\sole-survivor\Yak\Yak - The Rutland Chronicles (2006)\Yak - The Rutland Chronicles.wav Peak level 100.0 %
Range quality 100.0 %
Copy CRC 21EF5082
Copy OK

No errors occurred


AccurateRip summary

Track 1 not present in database
Track 2 not present in database
Track 3 not present in database
Track 4 not present in database
Track 5 not present in database
Track 6 not present in database
Track 7 not present in database
Track 8 not present in database
Track 9 not present in database
Track 10 not present in database
Track 11 not present in database
Track 12 not present in database
Track 13 not present in database

None of the tracks are present in the AccurateRip database

End of status report

foobar2000 1.2.6 / Dynamic Range Meter 1.1.1
log date: 2015-07-16 15:45:34

Analyzed: Yak / The Rutland Chronicles

DR Peak RMS Duration Track

DR10 0.00 dB -12.13 dB 12:53 01-Portal Honey
DR5 0.00 dB -6.15 dB 2:26 02-Bastante L/S
DR5 0.00 dB -7.21 dB 3:35 03-Dearly Departed Take 2
DR5 0.00 dB -6.73 dB 7:51 04-The Moon Was Clinically Depressed
DR4 0.00 dB -5.43 dB 5:59 05-Yak's Bolero
DR5 0.00 dB -6.54 dB 6:10 06-Latin Eighth
DR4 0.00 dB -4.96 dB 2:08 07-Why Smiley
DR7 0.00 dB -7.84 dB 8:23 08-Misty Mountains
DR7 0.00 dB -8.93 dB 1:00 09-Intro To Zea's Song
DR8 0.00 dB -10.25 dB 2:49 10-Lady Solitude
DR11 -1.23 dB -16.57 dB 5:25 11-Good Evening And Tonight's Spot Prize Will Be...
DR9 -0.03 dB -12.61 dB 7:55 12-Sleazy Dealer
DR9 0.00 dB -12.29 dB 2:03 13-Rif Riff take 2

Number of tracks: 13
Official DR value: DR7

Samplerate: 44100 Hz
Channels: 2
Bits per sample: 16
Bitrate: 816 kbps
Codec: FLAC

[CUETools log; Date: 16.07.2015 15:45:37; Version: 2.1.5]
[CTDB TOCID: FOiovCqV8TS7FDvyphnBnVXfmrY-] disk not present in database.
[AccurateRip ID: 0024a05b-01611698-c510150d] found.
Track [ CRC | V2 ] Status
01 [f8ca745b|fc0fe11b] (1+0/1) Accurately ripped
02 [a4b773c7|2ecdc921] (1+0/1) Accurately ripped
03 [026119ed|82a62b8d] (1+0/1) Accurately ripped
04 [c7e7962a|9fb9ac26] (1+0/1) Accurately ripped
05 [1d70eeb9|a6bfc4c5] (1+0/1) Accurately ripped
06 [21ca3012|0e6d650d] (1+0/1) Accurately ripped
07 [475a3897|5067734e] (1+0/1) Accurately ripped
08 [7a2ff602|5f54eabf] (1+0/1) Accurately ripped
09 [decff92e|4d3822cc] (1+0/1) Accurately ripped
10 [5b1a5789|496a4605] (1+0/1) Accurately ripped
11 [4fd4299b|367cfbb6] (1+0/1) Accurately ripped
12 [c9089cbd|3f683384] (1+0/1) Accurately ripped
13 [e824c012|609eabbf] (1+0/1) Accurately ripped

Track Peak [ CRC32 ] [W/O NULL] [ LOG ]
-- 100,0 [21EF5082] 8BA2947 CRC32
01 100,0 [5DE0CA85] [66CCC7D3]
02 100,0 [C3F9074A] [FDC3C70B]
03 100,0 [D6A731A4] [49F210FB]
04 100,0 [98483A2C] [C0C03784]
05 100,0 [8BDED8E0] [9A77AB4F]
06 100,0 [D918C93A] [60EDC3BF]
07 100,0 [582E9851] [C8451782]
08 100,0 [94588B6E] [5808F367]
09 100,0 [DC860FBE] [3BFBFBFF]
10 100,0 [DDB30C04] [787DFFD8]
11 86,7 [211E940B] [E5B58EDD]
12 99,6 [5286744E] [8910151A]
13 100,0 [31640412] [310DF52A]

http://i72.fastpic.ru/big/2015/0718/f3/84ebacf5c52b97ce4ef08c61e02b49f3.jpg

All thanks go to wurensh


DOWNLOAD LINKS:
Buy Premium To Support Me & Get Resumable Support & Max Speed


Links are Interchangeable - No Password - Single Extraction

Yak - The Rutland Chronicles (2006) Fast Download



 
 
 
Dear visitor, you went to the site as an unregistered user. We encourage you to register or enter the site under your name.
 
   
 
 (Votes #: 0)