2013Zone For Latest Downloads

 
     
 
Legal Downloads » Music » Phil Manzanera - K-Scope (1978) [Remastered 2000]
Menu
Home Applications
Games Movies
Music TV Shows
Torrents Graphics

Sitemap

RSS
 
Advanced Search
Last News
Site Info
Top Contributors:
  1    supper88 32766
  2    admin 32671
  3    Whisky 10080
  4    Shark_ 8911
  5    creativelivenew 8706
  6    whathesupa 2799
  7    candymypost 840
  8    hvnteam 629
  9    vuong87 3


Articles:
  This Hour: 0
  Today: 0
  This Month: 59
  All Time: 515636


Torrents:
  Today: 0
  Yesterday: 0
  All Time: 156702


Membership:
  Registered Today :0
  This Hour:0
  This Month:0
  Total:14
  Banned:1

{online}
{inform_torrent}
Friend:
We Recomend
Trend
Trend

Search In Site

Music : Phil Manzanera - K-Scope (1978) [Remastered 2000]
 
http://i69.fastpic.ru/big/2015/0722/c8/8b4cfa02315f135122c4ba354ed2b6c8.jpg

Phil Manzanera - K-Scope (1978) [Remastered 2000]
EAC Rip | FLAC (tracks & cue & log) | 397 MB | MP3 CBR 320 kbps | 149 MB | Scans | 60:50
Genre: Progressive rock / Art Rock / Experimental Rock | Country: UK | Label: Virgin | 7243 526310 25

"Recorded in the spring of 1978 at Yes bassist Chris Squire's home studio, K-Scope featured three founding members of the Split Enz/Crowded House: Eddie Rayner (keys), Tim Finn (lead vocal) and brother Neil Finn (backing vocal). Manzanera also enlists percussion heavyweight Simon Phillips, good buddies John Wetton and Bill MacCormick (both bassists and vocalists), and saxophonist Mel Collins, among several others. The band strong arms the solid pop/rock structures and approaches the instrumentals with the same verve. The literally "coolest" tune in the set is also Manzanera's personal favorite, the breezy "Gone Flying.""


Tracklist:

01. K-scope (4:27)
02. Remote control (2:36)
03. Cuban crisis (5:59)
04. Hot spot (4:58)
05. Numbers (3:26)
06. Slow motion TV (3:10)
07. Gone flying (4:25)
08. N-shift (5:30)
09. Walking through heaven's door (6:48)
10. You are here (3:16)
11. Remote control live (5:58)
12. It don't matter to me (2:59)
13. Out of the blue live (6:49)

Exact Audio Copy V1.0 beta 2 from 29. April 2011
EAC extraction logfile from 21. August 2011, 16:47
Phil Manzanera / K-Scope
Used drive : LITE-ON BD B LH-2B1S Adapter: 3 ID: 0
Read mode : Secure
Utilize accurate stream : Yes
Defeat audio cache : Yes
Make use of C2 pointers : No
Read offset correction

: 618
Overread into Lead-In and Lead-Out : No
Fill up missing offset samples with silence : Yes
Delete leading and trailing silent blocks : No
Null samples used in CRC calculations : Yes
Used interface
: Native Win32 interface for Win NT & 2000
Gap handling
: Appended to previous track
Used output format : User Defined Encoder
Selected bitrate : 256 kBit/s
Quality : High
Add ID3 tag : No
Command line compressor : C:\Program Files (x86)\Exact Audio Copy\Flac\flac.exe
Additional command line options : -8 -V -T "ARTIST=%artist%" -T "TITLE=%title%" -T "ALBUM=%albumtitle%" -T "DATE=%year%" -T "TRACKNUMBER=%tracknr%" -T "TOTALTRACKS=%numtracks%" -T "GENRE=%genre%" -T "ALBUMARTIST=%albumartist%" -T "ALBUM ARTIST=%albumartist%
TOC of the extracted CD
Track | Start | Length | Start sector | End sector
--1 | 0:00.00 | 4:29.20 | 0 | 201942 | 4:29.20 | 2:38.10 | 20195 | 320543 | 7:07.30 | 6:00.55 | 32055 | 591094 | 13:08.10 | 5:00.57 | 59110 | 816665 | 18:08.67 | 3:29.15 | 81667 | 973566 | 21:38.07 | 3:12.48 | 97357 | 1118047 | 24:50.55 | 4:27.00 | 111805 | 1318298 | 29:17.55 | 5:31.55 | 131830 | 1567099 | 34:49.35 | 6:49.67 | 156710 | 187451
10 | 41:39.27 | 3:18.00 | 187452 | 202301
11 | 44:57.27 | 6:00.63 | 202302 | 229364
12 | 50:58.15 | 3:02.47 | 229365 | 243061
13 | 54:00.62 | 6:49.40 | 243062 | 273776
Track 1
Filename C:\Users\Qwim\Desktop\Phil Manzanera - K-Scope Remastered (2000) [FLAC] {bonus tracks}\Flac\01 - K-Scope.wav
Pre-gap length 0:00:02.00
Peak level 95.0 %
Extraction speed 3.6 X
Track quality 99.9 %
Test CRC 6885DCCB
Copy CRC 6885DCCB
Accurately ripped (confidence 6) [2EBC5EDD] (AR v1)
Copy OK
Track 2
Filename C:\Users\Qwim\Desktop\Phil Manzanera - K-Scope Remastered (2000) [FLAC] {bonus tracks}\Flac\02 - Remote Control.wav
Pre-gap length 0:00:02.08
Peak level 98.7 %
Extraction speed 4.3 X
Track quality 100.0 %
Test CRC 63042172
Copy CRC 63042172
Accurately ripped (confidence 6) [C0AD66E9] (AR v1)
Copy OK
Track 3
Filename C:\Users\Qwim\Desktop\Phil Manzanera - K-Scope Remastered (2000) [FLAC] {bonus tracks}\Flac\03 - Cuban Crisis.wav
Pre-gap length 0:00:02.08
Peak level 94.0 %
Extraction speed 5.2 X
Track quality 100.0 %
Test CRC 47474977
Copy CRC 47474977
Accurately ripped (confidence 6) [A2A55E85] (AR v1)
Copy OK
Track 4
Filename C:\Users\Qwim\Desktop\Phil Manzanera - K-Scope Remastered (2000) [FLAC] {bonus tracks}\Flac\04 - Hot Spot.wav
Pre-gap length 0:00:01.23
Peak level 93.9 %
Extraction speed 4.8 X
Track quality 99.9 %
Test CRC A36F0DF7
Copy CRC A36F0DF7
Accurately ripped (confidence 6) [5A82CBF3] (AR v1)
Copy OK
Track 5
Filename C:\Users\Qwim\Desktop\Phil Manzanera - K-Scope Remastered (2000) [FLAC] {bonus tracks}\Flac\05 - Numbers.wav
Pre-gap length 0:00:02.22
Peak level 89.1 %
Extraction speed 5.7 X
Track quality 100.0 %
Test CRC 52C42E05
Copy CRC 52C42E05
Accurately ripped (confidence 6) [9011EF9A] (AR v1)
Copy OK
Track 6
Filename C:\Users\Qwim\Desktop\Phil Manzanera - K-Scope Remastered (2000) [FLAC] {bonus tracks}\Flac\06 - Slow Motion TV.wav
Pre-gap length 0:00:02.17
Peak level 95.8 %
Extraction speed 5.9 X
Track quality 100.0 %
Test CRC 31DFCBDE
Copy CRC 31DFCBDE
Accurately ripped (confidence 6) [F631AA4C] (AR v1)
Copy OK
Track 7
Filename C:\Users\Qwim\Desktop\Phil Manzanera - K-Scope Remastered (2000) [FLAC] {bonus tracks}\Flac\07 - Gone Flying.wav
Pre-gap length 0:00:01.68
Peak level 96.5 %
Extraction speed 6.4 X
Track quality 100.0 %
Test CRC 43C7572B
Copy CRC 43C7572B
Accurately ripped (confidence 6) [389FCD36] (AR v1)
Copy OK
Track 8
Filename C:\Users\Qwim\Desktop\Phil Manzanera - K-Scope Remastered (2000) [FLAC] {bonus tracks}\Flac\08 - N-Shift.wav
Pre-gap length 0:00:01.38
Peak level 95.6 %
Extraction speed 6.9 X
Track quality 100.0 %
Test CRC 206FDC56
Copy CRC 206FDC56
Accurately ripped (confidence 6) [696404E8] (AR v1)
Copy OK
Track 9
Filename C:\Users\Qwim\Desktop\Phil Manzanera - K-Scope Remastered (2000) [FLAC] {bonus tracks}\Flac\09 - Walking Through Heaven's Door.wav
Pre-gap length 0:00:01.15
Peak level 94.8 %
Extraction speed 7.4 X
Track quality 100.0 %
Test CRC 5D52CFD6
Copy CRC 5D52CFD6
Accurately ripped (confidence 6) [CECDDB56] (AR v1)
Copy OK
Track 10
Filename C:\Users\Qwim\Desktop\Phil Manzanera - K-Scope Remastered (2000) [FLAC] {bonus tracks}\Flac\10 - You Are Here.wav
Pre-gap length 0:00:01.55
Peak level 57.1 %
Extraction speed 7.1 X
Track quality 100.0 %
Test CRC 460990C8
Copy CRC 460990C8
Accurately ripped (confidence 6) [58600E2C] (AR v1)
Copy OK
Track 11
Filename C:\Users\Qwim\Desktop\Phil Manzanera - K-Scope Remastered (2000) [FLAC] {bonus tracks}\Flac\11 - Remote Control (live 801 tour 1977).wav
Pre-gap length 0:00:01.50
Peak level 96.5 %
Extraction speed 6.8 X
Track quality 99.9 %
Test CRC F5DDE334
Copy CRC F5DDE334
Accurately ripped (confidence 5) [ACECF885] (AR v1)
Copy OK
Track 12
Filename C:\Users\Qwim\Desktop\Phil Manzanera - K-Scope Remastered (2000) [FLAC] {bonus tracks}\Flac\12 - It Don't Matter To Me (demo).wav
Pre-gap length 0:00:01.68
Peak level 96.5 %
Extraction speed 7.3 X
Track quality 100.0 %
Test CRC 65BA2B5D
Copy CRC 65BA2B5D
Accurately ripped (confidence 6) [8743C2E3] (AR v1)
Copy OK
Track 13
Filename C:\Users\Qwim\Desktop\Phil Manzanera - K-Scope Remastered (2000) [FLAC] {bonus tracks}\Flac\13 - Out Of The Blue (live 801 tour 1977).wav
Pre-gap length 0:00:02.55
Peak level 96.5 %
Extraction speed 8.5 X
Track quality 100.0 %
Test CRC 74156D1E
Copy CRC 74156D1E
Accurately ripped (confidence 6) [4A37C811] (AR v1)
Copy OK
All tracks accurately ripped
No errors occurred
End of status report
==== Log checksum 32F8D8F08D3FAE7DC158F433EF44EAC9F4381F60038218B1FF5D3F60EA58906E ====

Personnel

- Phil Manzanera : guitar, farfisas, electric piano, keyboards
- Simon Phillips : drums, electric percussion
- Paul Thompsom : drums
- Bill MacCormick : bass, backing vocals, drums
- Simon Ainley : rhythm guitar
- Dave Skinner : electric piano, keyboards
- Eddie Rayner : electric piano, moog bass, keyboards
- Tim Finn : lead & backing vocals
- Neil Finn : backing vocals
- Mel Collins : sax, baritone sax, soprano sax
-Lol Crème : gizmo, backing vocals

All thanks to original releaser

http://i69.fastpic.ru/big/2015/0722/7f/f3b7f6e072bda82804de82c119683e7f.jpg

http://i71.fastpic.ru/big/2015/0722/a4/e40b90e4b654f009a4697b3e990e66a4.jpg


DOWNLOAD LINKS:
Buy Premium To Support Me & Get Resumable Support & Max Speed


Links are Interchangeable - No Password - Single Extraction

 
 
 
Dear visitor, you went to the site as an unregistered user. We encourage you to register or enter the site under your name.
 
   
 
 (Votes #: 0)