2013Zone For Latest Downloads

 
     
 
Legal Downloads » Music » Trey Gunn / Marco Minnemann - Modulator (2010)
Menu
Home Applications
Games Movies
Music TV Shows
Torrents Graphics

Sitemap

RSS
 
Advanced Search
Last News
Site Info
Top Contributors:
  1    supper88 32766
  2    admin 32671
  3    Whisky 10080
  4    Shark_ 8911
  5    creativelivenew 8706
  6    whathesupa 2799
  7    candymypost 840
  8    hvnteam 629
  9    vuong87 3


Articles:
  This Hour: 0
  Today: 0
  This Month: 40
  All Time: 515636


Torrents:
  Today: 0
  Yesterday: 0
  All Time: 156702


Membership:
  Registered Today :0
  This Hour:0
  This Month:0
  Total:14
  Banned:1

{online}
{inform_torrent}
Friend:
We Recomend
Trend
Trend

Search In Site

Music : Trey Gunn / Marco Minnemann - Modulator (2010)
 
http://i72.fastpic.ru/big/2015/0722/76/8193ee194d160e5c5155204e2ef5df76.jpg

Trey Gunn / Marco Minnemann - Modulator (2010)
EAC Rip | APE (image & cue & log) | 318 MB | MP3 CBR 320 kbps | 136 MB | Scans | 50:50
Genre: Progressive Rock / Jazz-Rock | Country: USA | Label: 7d Media | 1011

"Fusion and electric avant-garde jazz are two different things. Fusion--as envisioned by Miles Davis, John McLaughlin, Chick Corea, and others back in the '70s -- combined jazz with rock and funk in a way that didn't emphasize outside playing, whereas electric avant-garde jazz (as in Ornette Coleman's Prime Time, Jamaaladeen Tacuma, Ronald Shannon Jackson, and James Blood Ulmer) savors the dissonant pleasures of the outside. But there are times when the two merge, and that is what happens on guitarist Trey Gunn and drummer Marco Minnemann's Modulator."



Tracklist:

01. Contact
02. Flood
03. Spray l
04. Fall Time +/-
05. Fall Time -/+
06. Lumen
07. Switch
08. Daughter
09. Pole
10. Scatter
11. Up Spin
12. Down Spin
13. Spectra
14. Superstish-a-tron
15. Californ-a-tron
16. Spray ll
17. Mono-Punkte
18. Coupling
19. Incantation
20. Slingcharm
21. Twisted Pair
22. Hymn

Exact Audio Copy V0.99 prebeta 5 from 4. May 2009
EAC extraction logfile from 16. November 2010, 23:16
Trey Gunn \ Marco Minnemann (Michael Connolly) / Modulator
Used drive : HL-DT-STDVDRAM GSA-T20N Adapter: 0 ID: 0
Read mode : Secure
Utilize accurate stream : Yes
Defeat audio cache : Yes
Make use of C2 pointers : No
Read offset correction

: 667
Overread into Lead-In and Lead-Out : No
Fill up missing offset samples with silence : Yes
Delete leading and trailing silent blocks : No
Null samples used in CRC calculations : No
Used interface
: Native Win32 interface for Win NT & 2000
Used output format : Internal WAV Routines
Sample format : 44.100 Hz; 16 Bit; Stereo
TOC of the extracted CD
Track | Start | Length | Start sector | End sector
--1 | 0:00.00 | 3:26.64 | 0 | 155132 | 3:26.64 | 2:49.31 | 15514 | 282193 | 6:16.20 | 1:21.55 | 28220 | 343494 | 7:38.00 | 1:14.20 | 34350 | 399195 | 8:52.20 | 4:09.51 | 39920 | 586456 | 13:01.71 | 2:17.73 | 58646 | 689937 | 15:19.69 | 0:49.66 | 68994 | 727348 | 16:09.60 | 0:59.52 | 72735 | 772119 | 17:09.37 | 1:03.20 | 77212 | 81956
10 | 18:12.57 | 1:17.07 | 81957 | 87738
11 | 19:29.64 | 1:03.71 | 87739 | 92534
12 | 20:33.60 | 1:12.64 | 92535 | 97998
13 | 21:46.49 | 6:08.36 | 97999 | 125634
14 | 27:55.10 | 1:12.40 | 125635 | 131074
15 | 29:07.50 | 0:46.12 | 131075 | 134536
16 | 29:53.62 | 3:07.41 | 134537 | 148602
17 | 33:01.28 | 2:24.73 | 148603 | 159475
18 | 35:26.26 | 2:17.20 | 159476 | 169770
19 | 37:43.46 | 3:27.15 | 169771 | 185310
20 | 41:10.61 | 2:09.29 | 185311 | 195014
21 | 43:20.15 | 2:55.65 | 195015 | 208204
22 | 46:16.05 | 4:33.49 | 208205 | 228728
Range status and errors
Selected range
Filename C:\Documents and Settings\Home\Рабочий стол\Modulator\Trey Gunn Marco Minnemann (Michael Connolly) - Modulator.wav
Peak level 97.7 %
Range quality 100.0 %
Test CRC 236CD684
Copy CRC 236CD684
Copy OK
No errors occurred
AccurateRip summary
Track 1 not present in database
Track 2 not present in database
Track 3 not present in database
Track 4 not present in database
Track 5 not present in database
Track 6 not present in database
Track 7 not present in database
Track 8 not present in database
Track 9 not present in database
Track 10 not present in database
Track 11 not present in database
Track 12 not present in database
Track 13 not present in database
Track 14 not present in database
Track 15 not present in database
Track 16 not present in database
Track 17 not present in database
Track 18 not present in database
Track 19 not present in database
Track 20 not present in database
Track 21 not present in database
Track 22 not present in database
None of the tracks are present in the AccurateRip database
End of status report

Personnel

Trey Gunn - guitars, fretless guitars, touch guitars, basses, keyboards, samples, arrangements
Michael Connolly - uilleann pipes, fiddle
Marco Minnemann - drum kit

All thanks to Nevermind_ekb

http://i70.fastpic.ru/big/2015/0722/1f/3d914b501f5a74d0be73861a141ba51f.jpg


DOWNLOAD LINKS:
Buy Premium To Support Me & Get Resumable Support & Max Speed


Links are Interchangeable - No Password - Single Extraction

 
 
 
Dear visitor, you went to the site as an unregistered user. We encourage you to register or enter the site under your name.
 
   
 
 (Votes #: 0)