2013Zone For Latest Downloads

 
     
 
Legal Downloads » Music » G. Love - Lemonade (2006)
Menu
Home Applications
Games Movies
Music TV Shows
Torrents Graphics

Sitemap

RSS
 
Advanced Search
Last News
Site Info
Top Contributors:
  1    supper88 32766
  2    admin 32671
  3    Whisky 10080
  4    Shark_ 8911
  5    creativelivenew 8706
  6    whathesupa 2799
  7    candymypost 840
  8    hvnteam 629
  9    vuong87 3


Articles:
  This Hour: 0
  Today: 0
  This Month: 59
  All Time: 515636


Torrents:
  Today: 0
  Yesterday: 0
  All Time: 156702


Membership:
  Registered Today :0
  This Hour:0
  This Month:0
  Total:14
  Banned:1

{online}
{inform_torrent}
Friend:
We Recomend
Trend
Trend

Search In Site

Music : G. Love - Lemonade (2006)
 
http://i69.fastpic.ru/big/2015/0722/a4/50b21b40f4e93f9e0b41c5652d28faa4.jpg

G. Love - Lemonade (2006)
EAC Rip | FLAC with CUE and log | scans | 380mb
MP3 CBR 320kbps | RAR | 148mb
Genre: indie rock, pop/soul, folk rock, hip-hop

Lemonade is a 2006 CD by artist G. Love. The album features special guests Chuck Treece, Donavon Frankenreiter, Dave Hidalgo, Gift Of Gab, Lateef The Truth Speaker, RV Salters, General Elektriks, Jasper, Ben Harper, Marc Broussard, Jack Johnson, and many more. This was released by Brushfire.
"On his latest effort Philly native G. Love brings a bunch of his friends into the mix, collaborating with lovely up-and-coming young singer/songwriter Tristan Prettyman, as well as more well-known folks like Blackalicious, Lateef the Truth Speaker, Jack Johnson, and even Ben Harper. For the uninitiated, that right there perfectly shows how G. Love rolls-mixing hip hop, folk, rock, and funk along with his signature, straight-up blues-guitar and harmonica. Despite the bevy of guests, the album is still 100% G. Love coated in his omnipresent special sauce. From start to finish Lemonade plays through with one hot track after another, although songs like "Hot Cookin'," "Let the Music Play" (featuring Ben Harper), "Free," and "Beautiful" (featuring Tristan Prettyman) are the ones that really shine. Then there's "Can't Go Back to Jersey," where G. jumps into a time machine and kicks rhymes on par with classics like "Cold Beverage" or "Baby Got Sauce" (from his 1994 debut G. Love & The Special Sauce). "Rainbow," a smooth, more acoustic-themed collaborative effort finds Love and Johnson together in a revamped duet which was originally featured ut never released to the masses in Thicker Than Water, the critically acclaimed surf film that Johnson directed. Lemonade presents G. Love at his finest, laying down his smooth lyrical flow over beautifully serene guitar riffs and rhythms. No other skinny white boy delivers the funky-ass front-porch blues like G. Love. Period. If you don't believe me then just take a little sip of his "lemonade," and taste for yourself."


http://i69.fastpic.ru/big/2015/0722/de/f1cf72e4067d160a729a1afad136cfde.jpg

01. Ride
02. Ain't That Right
03. Hot Cookin'
04. Can't Go Back To Jersey
05. Missing My Baby
06. Holla!
07. Banger
08. Thanks And Praise
09. Let The Music Play
10. Free
11. Beautiful
12. Rainbow
13. Breakin' Up
14. Still Hangin' Around

http://i71.fastpic.ru/big/2015/0722/da/cc0a50a45872e628943911e570b826da.jpg



EAC extraction logfile from 21. September 2006, 13:41 for CD
G. Love / Lemonade

Used drive : LITE-ON DVDRW SOHW-1633S Adapter: 0 ID: 0
Read mode : Secure with NO C2, accurate stream, disable cache
Read offset correction : 12
Overread into Lead-In and Lead-Out : No

Used output format : Internal WAV Routines 44.100 Hz; 16 Bit; Stereo

Other options :
Fill up missing offset samples with silence : Yes
Delete leading and trailing silent blocks : No
Installed external ASPI interface

Track 1
Filename D:\FLAC\G. Love - Lemonade (2006) [FLAC]\01 - Ride.wav Pre-gap length 0:00:02.00 Peak level 98.8 %
Track quality 99.9 %
Test CRC 26DA1738
Copy CRC 26DA1738
Copy OK

Track 2
Filename D:\FLAC\G. Love - Lemonade (2006) [FLAC]\02 - Ain't That Right.wav Peak level 100.0 %
Track quality 100.0 %
Test CRC C65206AC
Copy CRC C65206AC
Copy OK

Track 3
Filename D:\FLAC\G. Love - Lemonade (2006) [FLAC]\03 - Hot Cookin'.wav Peak level 98.8 %
Track quality 99.9 %
Test CRC 5581234D
Copy CRC 5581234D
Copy OK

Track 4
Filename D:\FLAC\G. Love - Lemonade (2006) [FLAC]\04 - Can't Go Back To Jersey.wav Peak level 100.0 %
Track quality 99.9 %
Test CRC 36005F8B
Copy CRC 36005F8B
Copy OK

Track 5
Filename D:\FLAC\G. Love - Lemonade (2006) [FLAC]\05 - Missing My Baby.wav Peak level 100.0 %
Track quality 100.0 %
Test CRC CC122F5A
Copy CRC CC122F5A
Copy OK

Track 6
Filename D:\FLAC\G. Love - Lemonade (2006) [FLAC]\06 - Holla!.wav Peak level 98.8 %
Track quality 99.9 %
Test CRC 3B3C9CC0
Copy CRC 3B3C9CC0
Copy OK

Track 7
Filename D:\FLAC\G. Love - Lemonade (2006) [FLAC]\07 - Banger.wav Peak level 98.8 %
Track quality 100.0 %
Test CRC C0F0BCFF
Copy CRC C0F0BCFF
Copy OK

Track 8
Filename D:\FLAC\G. Love - Lemonade (2006) [FLAC]\08 - Thanks And Praise.wav Peak level 100.0 %
Track quality 100.0 %
Test CRC F6ECCD6A
Copy CRC F6ECCD6A
Copy OK

Track 9
Filename D:\FLAC\G. Love - Lemonade (2006) [FLAC]\09 - Let The Music Play.wav Peak level 100.0 %
Track quality 100.0 %
Test CRC 7C086B8A
Copy CRC 7C086B8A
Copy OK

Track 10
Filename D:\FLAC\G. Love - Lemonade (2006) [FLAC]\10 - Free.wav Peak level 100.0 %
Track quality 100.0 %
Test CRC 5168C48D
Copy CRC 5168C48D
Copy OK

Track 11
Filename D:\FLAC\G. Love - Lemonade (2006) [FLAC]\11 - Beautiful.wav Peak level 100.0 %
Track quality 100.0 %
Test CRC FB003FEE
Copy CRC FB003FEE
Copy OK

Track 12
Filename D:\FLAC\G. Love - Lemonade (2006) [FLAC]\12 - Rainbow.wav Peak level 98.8 %
Track quality 100.0 %
Test CRC 0DDAB3A3
Copy CRC 0DDAB3A3
Copy OK

Track 13
Filename D:\FLAC\G. Love - Lemonade (2006) [FLAC]\13 - Breakin' Up.wav Peak level 98.8 %
Track quality 100.0 %
Test CRC ED6CE39E
Copy CRC ED6CE39E
Copy OK

Track 14
Filename D:\FLAC\G. Love - Lemonade (2006) [FLAC]\14 - Still Hangin' Around.wav Peak level 100.0 %
Track quality 100.0 %
Test CRC E83B62EF
Copy CRC E83B62EF
Copy OK

No errors occured

End of status report
DOWNLOAD LINKS:
Buy Premium To Support Me & Get Resumable Support & Max Speed


Links are Interchangeable - No Password - Single Extraction

 
 
 
Dear visitor, you went to the site as an unregistered user. We encourage you to register or enter the site under your name.
 
   
 
 (Votes #: 0)