2013Zone For Latest Downloads

 
     
 
Legal Downloads » TV Shows » ITV - The Secret Life of Twins (2015)
Menu
Home Applications
Games Movies
Music TV Shows
Torrents Graphics

Sitemap

RSS
 
Advanced Search
Last News
Site Info
Top Contributors:
  1    supper88 32766
  2    admin 32671
  3    Whisky 10080
  4    Shark_ 8911
  5    creativelivenew 8706
  6    whathesupa 2799
  7    candymypost 840
  8    hvnteam 629
  9    vuong87 3


Articles:
  This Hour: 0
  Today: 0
  This Month: 59
  All Time: 515636


Torrents:
  Today: 0
  Yesterday: 0
  All Time: 156702


Membership:
  Registered Today :0
  This Hour:0
  This Month:0
  Total:14
  Banned:1

{online}
{inform_torrent}
Friend:
We Recomend
Trend
Trend

Search In Site

TV Shows : ITV - The Secret Life of Twins (2015)
 
http://i69.fastpic.ru/big/2015/0722/97/4d83821f8221155d2870aba0d2ca2a97.jpg

ITV - The Secret Life of Twins (2015)
HDTV | English | MKV | 1280 x 720 | AVC ~3375 Kbps | 25 fps
AC-3 | 384 kbps | 48.0 KHz | 2 channels | 00:46:25 | 1.24 GB
Genre: Documentary

"Documentary investigating the world of identical twins. Using brand new filming techniques, the programme discovers not only what it means to be a twin, but also what it means to be human. Scientists are now discovering that their experiences in the womb also account for much of their surprising synchronicity. This helps explain how 26-year-old French fashion designer Anais Bordier miraculously found she had a twin sister - Samantha Futerman - after spotting her by chance in a movie trailer, as they shared many of the same mannerisms and tastes.."

General
Unique ID
: ITV - The.Secret.Life.of.Twins - 2015.720p.AC3.mkv
Format
: Matroska
Format version : Version 4 / Version 2
File size
: 1.24 GiB
Duration
: 46mn 25s
Overall bit rate : 3 835 Kbps
Movie name
: ITV.Secret.Life.of.Twins.2015.720p.AC3.x264-hPLuS
Encoded date : UTC 2015-07-16 16:09:26
Writing application

: mkvmerge v8.1.0 ('Psychedelic Postcard') 64bit
Writing library : libebml v1.3.1 + libmatroska v1.4.2
DURATION
: 00:46:25.888000000
NUMBER_OF_FRAMES : 87059
NUMBER_OF_BYTES : 133722624
_STATISTICS_WRITING_APP : mkvmerge v8.1.0 ('Psychedelic Postcard') 64bit
_STATISTICS_WRITING_DATE_UTC : 2015-07-16 16:09:26
_STATISTICS_TAGS : BPS DURATION NUMBER_OF_FRAMES NUMBER_OF_BYTES

Video
ID : 1
Format
: AVC
Format/Info
: Advanced Video Codec
Format profile : [email protected]
Format settings, CABAC : Yes
Format settings, ReFrames : 5 frames
Codec ID
: V_MPEG4/ISO/AVC
Duration
: 46mn 25s
Bit rate
: 3 375 Kbps
Width
: 1 280 pixels
Height
: 720 pixels
Display aspect ratio : 16:9
Frame rate
: 25.000 fps
Color space
: YUV
Chroma subsampling

: 4:2:0
Bit depth
: 8 bits
Scan type
: Progressive
Bits/(Pixel*Frame)

: 0.146
Stream size
: 1.09 GiB (88%)
Title
: hPLuS / MPEG-4 AVC Video / 3449 kbps / 25 fps / [email protected]
Writing library : x264 core 146 r2538 121396c
Encoding settings: cabac=1 / ref=5 / deblock=1:-2:2 / analyse=0x3:0x113 / me=umh / subme=10 / psy=1 / psy_rd=1.00:0.15 / mixed_ref=1 / me_range=48 / chroma_me=1 / trellis=2 / 8x8dct=1 / cqm=0 / deadzone=21,11 / fast_pskip=0 / chroma_qp_offset=-3 / threads=18 / lookahead_threads=2 / sliced_threads=0 / nr=0 / decimate=1 / interlaced=0 / bluray_compat=0 / constrained_intra=0 / bframes=5 / b_pyramid=2 / b_adapt=2 / b_bias=0 / direct=3 / weightb=1 / open_gop=0 / weightp=2 / keyint=250 / keyint_min=25 / scenecut=40 / intra_refresh=0 / rc_lookahead=120 / rc=crf / mbtree=1 / crf=15.5 / qcomp=0.60 / qpmin=0 / qpmax=69 / qpstep=4 / vbv_maxrate=30000 / vbv_bufsize=38000 / crf_max=0.0 / nal_hrd=none / filler=0 / ip_ratio=1.40 / aq=2:0.90
Default
: Yes
Forced
: No
Color primaries : BT.709-5, BT.1361, IEC 61966-2-4, SMPTE RP177
Transfer characteristics : BT.709-5, BT.1361
Matrix coefficients

: BT.709-5, BT.1361, IEC 61966-2-4 709, SMPTE RP177

Audio
ID : 2
Format
: AC-3
Format/Info
: Audio Coding 3
Mode extension : CM (complete main)
Codec ID
: A_AC3
Duration
: 46mn 25s
Bit rate mode : Constant
Bit rate
: 384 Kbps
Channel(s)
: 2 channels
Channel positions: Front: L R
Sampling rate : 48.0 KHz
Bit depth
: 16 bits
Compression mode : Lossy
Stream size
: 128 MiB (10%)
Title
: hPLuS / AC3 / 2.0 / 48 kHz / 384 kbps / 16-bit
Language
: English
Default
: Yes
Forced
: No

Screenshots

http://i72.fastpic.ru/big/2015/0722/8b/513d453ba02c18f16976166c8649f08b.jpg

http://i69.fastpic.ru/big/2015/0722/c3/5851e3b6fb4ccf0498cc8230bf4551c3.jpg

http://i71.fastpic.ru/big/2015/0722/ed/94fc8bd81b97f8359230dcf3b7e81fed.jpg


DOWNLOAD LINKS:
Buy Premium To Support Me & Get Resumable Support & Max Speed


Links are Interchangeable - No Password - Single Extraction

 
 
 
Dear visitor, you went to the site as an unregistered user. We encourage you to register or enter the site under your name.
 
   
 
 (Votes #: 0)