2013Zone For Latest Downloads

 
     
 
Legal Downloads » Music » 10cc - Mirror Mirror (1995) [Japanese Ed.]
Menu
Home Applications
Games Movies
Music TV Shows
Torrents Graphics

Sitemap

RSS
 
Advanced Search
Last News
Site Info
Top Contributors:
  1    supper88 32766
  2    admin 32671
  3    Whisky 10080
  4    Shark_ 8911
  5    creativelivenew 8706
  6    whathesupa 2799
  7    candymypost 840
  8    hvnteam 629
  9    vuong87 3


Articles:
  This Hour: 0
  Today: 0
  This Month: 40
  All Time: 515636


Torrents:
  Today: 0
  Yesterday: 0
  All Time: 156702


Membership:
  Registered Today :0
  This Hour:0
  This Month:0
  Total:14
  Banned:1

{online}
{inform_torrent}
Friend:
We Recomend
Trend
Trend

Search In Site

Music : 10cc - Mirror Mirror (1995) [Japanese Ed.]
 
http://i72.fastpic.ru/big/2015/0722/40/65c2474ee5df29574b859696e7c31340.jpg

10cc - Mirror Mirror (1995) [Japanese Ed.]
EAC Rip | FLAC: Image+Cue+Log | 472 Mb | MP3 CBR 320 kbps | 203 Mb | Scans | 307 Mb | Time: 01:05:22
Genre: Pop Rock, Art Rock | Label: Cutting Edge | Cat.№: CTCR-13033

"Mirror Mirror is the 11th and last album by British pop band 10cc. It was released in 1995 and did not chart in the UK or US. Again featuring just two of 10cc's core band members, Graham Gouldman and Eric Stewart, the album included performances by Paul McCartney on two tracks, Andrew Gold on two tracks and Rick Fenn on one track. The Japanese version has 15 tracks, including all five new tracks, and the "Rework of Art Mix" version of "I'm Not in Love"."



Track Listing

01. I'm Not In Love (Rework Of Art Mix) (05:53)
02. Peace In Our Time (04:04)
03. Code Of Silence (05:39)
04. Take This Woman (03:52)
05. Yvonne's The One (04:26)
06. Monkey And The Onion (03:18)
07. Margo Wants The Mustard (03:54)
08. Ready To Go Home (04:38)
09. Everything Is Not Enough (04:28)
10. Blue Bird (04:04)
11. Age Of Consent (05:43)
12. Grow Old With Me (03:23)
13. Why Did I Break Your Heart? (05:19)
14. Now You're Gone (03:02)
15. I'm Not In Love (Acoustic Session '95) (03:31)

Produced by Eric Stewart, Graham Gouldman, Adrian Lee, Rod Gammons

The Band

* Eric Stewart - lead and backing vocals, lead guitar, keyboards, percussion
* Graham Gouldman - lead and backing vocals, guitars, bass guitar, percussion, mandolin
* Adrian Lee - bass, keyboard, backing vocals, brass section, percussion, accordion, vibes, acoustic guitar
* Rick Fenn - lead guitar ("Peace in Our Time")
* Gary Wallis - drums, percussion

Additional Musicians:

* Paul McCartney - rhythm guitar ("Yvonne's the One"), strings, electric piano, frogs, crickets, percussion ("Code of Silence")
* Andrew Gold - lead vocal ("Ready To Go Home"), backing vocals ("Grow Old With Me")
* Steve Pigott - keyboard, drum programming
* Ian Thomas - drums
* Gary Barnacle - saxophone
* Peter Thoms - trombone
* Lise Aferiat and Nicola Burton - violin
* Chris Goldscheider - viola
* Andrew Hines and Patrick Jones - cello

http://i70.fastpic.ru/big/2015/0722/1b/5ab35128744cf2a6bd54ae51201aec1b.jpg



Exact Audio Copy V1.0 beta 3 from 29. August 2011

EAC extraction logfile from 22. February 2014, 18:46

10cc / Mirror Mirror

Used drive : PLEXTOR DVDR PX-L890SA Adapter: 1 ID: 0

Read mode : Secure
Utilize accurate stream : Yes
Defeat audio cache : Yes
Make use of C2 pointers : No

Read offset correction

: 6
Overread into Lead-In and Lead-Out : No
Fill up missing offset samples with silence : Yes
Delete leading and trailing silent blocks : No
Null samples used in CRC calculations : Yes
Used interface
: Native Win32 interface for Win NT & 2000

Used output format : User Defined Encoder
Selected bitrate : 768 kBit/s
Quality : High
Add ID3 tag : No
Command line compressor : G:\Program Files\Exact Audio Copy\FLAC\FLAC.EXE
Additional command line options : -V -8 -T "Date=%year%" -T "Genre=%genre%" %source%

TOC of the extracted CD Track | Start | Length | Start sector | End sector
--1 | 0:00.00 | 5:53.17 | 0 | 26491 2 | 5:53.17 | 4:04.68 | 26492 | 44859 3 | 9:58.10 | 5:39.67 | 44860 | 70351 4 | 15:38.02 | 3:52.33 | 70352 | 87784 5 | 19:30.35 | 4:26.40 | 87785 | 107774 6 | 23:57.00 | 3:18.37 | 107775 | 122661 7 | 27:15.37 | 3:54.58 | 122662 | 140269 8 | 31:10.20 | 4:38.50 | 140270 | 161169 9 | 35:48.70 | 4:28.45 | 161170 | 181314
10 | 40:17.40 | 4:04.62 | 181315 | 199676
11 | 44:22.27 | 5:43.28 | 199677 | 225429
12 | 50:05.55 | 3:23.07 | 225430 | 240661
13 | 53:28.62 | 5:19.33 | 240662 | 264619
14 | 58:48.20 | 3:02.05 | 264620 | 278274
15 | 61:50.25 | 3:31.50 | 278275 | 294149

Range status and errors

Selected range Filename H:\MUSIC\10CC\1995. 10CC - Mirror Mirror (Cutting Edge CTCR-13033, Japan)\10cc - Mirror Mirror.wav Peak level 100.0 %
Extraction speed 6.5 X
Range quality 100.0 %
Test CRC 261E34A5
Copy CRC 261E34A5
Copy OK

No errors occurred


AccurateRip summary

Track 1 accurately ripped (confidence 8) [ABB43FAC] (AR v2)
Track 2 accurately ripped (confidence 7) [4FAC90A0] (AR v2)
Track 3 accurately ripped (confidence 6) [7A2547E5] (AR v2)
Track 4 accurately ripped (confidence 7) [5DDBF730] (AR v2)
Track 5 accurately ripped (confidence 8) [11920F94] (AR v2)
Track 6 accurately ripped (confidence 6) [5368BD96] (AR v2)
Track 7 accurately ripped (confidence 8) 7252CA0 (AR v2)
Track 8 accurately ripped (confidence 8) 7320CD0 (AR v2)
Track 9 accurately ripped (confidence 6) [EF8E85B3] (AR v2)
Track 10 accurately ripped (confidence 7) [5C13C604] (AR v2)
Track 11 accurately ripped (confidence 8) [81BF6876] (AR v2)
Track 12 accurately ripped (confidence 8) [6B134ADE] (AR v2)
Track 13 accurately ripped (confidence 8) [7B626377] (AR v2)
Track 14 accurately ripped (confidence 7) [09593250] (AR v2)
Track 15 accurately ripped (confidence 8) [A1CACBA4] (AR v2)

All tracks accurately ripped

End of status report

- CUETools DB Plugin V2.1.3

[CTDB TOCID: wmR.G9WbASidZf3iriRhFRcBoEw-] found, Submit result: wmR.G9WbASidZf3iriRhFRcBoEw- has been confirmed
[ac17bfff] (5/5) Accurately ripped

==== Log checksum 43EB4E17581DD8E889CDE7423BEA538873E788F8E820F17F1F16988FB1A8ED71 ====

Many thanks to the original uploader: snakesharmer

Related Releases:
DOWNLOAD LINKS:
Buy Premium To Support Me & Get Resumable Support & Max Speed


Links are Interchangeable - No Password - Single Extraction

 
 
 
Dear visitor, you went to the site as an unregistered user. We encourage you to register or enter the site under your name.
 
   
 
 (Votes #: 0)