2013Zone For Latest Downloads

 
     
 
Legal Downloads » Music » Original Album Series: Brinsley Schwarz (2015)
Menu
Home Applications
Games Movies
Music TV Shows
Torrents Graphics

Sitemap

RSS
 
Advanced Search
Last News
Site Info
Top Contributors:
  1    supper88 32766
  2    admin 32693
  3    Whisky 10080
  4    Shark_ 8911
  5    creativelivenew 8706
  6    whathesupa 2799
  7    candymypost 840
  8    hvnteam 629
  9    vuong87 3


Articles:
  This Hour: 0
  Today: 0
  This Month: 62
  All Time: 515562


Torrents:
  Today: 0
  Yesterday: 0
  All Time: 156685


Membership:
  Registered Today :0
  This Hour:0
  This Month:0
  Total:14
  Banned:1

{online}
{inform_torrent}
Friend:
We Recomend
Trend
Trend
Ad1

Search In Site

Music : Original Album Series: Brinsley Schwarz (2015)
 
http://i69.fastpic.ru/big/2015/0722/02/fceb0fa6053947732a4d35775edaa302.jpg

Original Album Series: Brinsley Schwarz (2015)
EAC | Flac(Image) + Cue + Log & MP3 CBR 320Kbps
5CD | Parlophone, 2564622174 | ~ 1261 or 537 Mb | Scans(jpg) Included
Classic Rock / Country Rock / Folk Rock / Blues Rock | Scans(png) -> 288 Mb

"Yet another winner in the 'Original Album Series' sets. Brinsley Schwarz will always be known as the band in which Nick Lowe really started to craft his style..."

http://i69.fastpic.ru/big/2015/0722/7d/575f33c48c00ed4ed1c953b43259457d.jpg

Brinsley Schwarz at Wiki | Brinsley Schwarz at Discogs | Brinsley Schwarz at Allmusic

***********
Original Album Series: Brinsley Schwarz (2015):

http://i70.fastpic.ru/big/2015/0722/6d/af7c0b15af674f8bb04aac3c68c7eb6d.jpg

CD01: Brinsley Schwarz - Brinsley Schwarz (1970)
EAC | Flac(Image) + Cue + Log & MP3 CBR 320Kbps
Parlophone, 2564622174-1 | ~258 or 109 Mb | Scans(jpg) Included
Rock | Scans(png) -> 288 Mb

"Brinsley Schwarz's eponymous debut is the stuff of rock legend because it is the punch line to a great story. It arrived after a disastrous publicity blitz, where the band's management arranged for prominent British journalists to cross the ocean to hear the Brinsleys' showcase performance at the Fillmore East. In a series of mishaps that would shame Spinal Tap, the band arrived in New York hours before their show and the journalists, who dipped heavily into the courtesy bar when their plane nearly crashed, arrived minutes before the concert. The press was underwhelmed to say the least and savaged the band and the record. Listening to Brinsley Schwarz, it's easy to see why they weren't turned on by the Brinsleys: this is a bizarre, naïve blend of Crosby, Stills & Nash, Dylan & the Band, and Buffalo Springfield, with a heavy dose of early Yes. It's filled with awkward steps and bad judgments, fueled by the group's romanticized view of Californian hippies. Consequently, it's hard not to cringe or chuckle by their hippie affectations, whether it's the lyrics ("she was my lady/had no plans to make her my wife") or the a cappella folk-rock harmonies that come out of nowhere on "Lady Constant" (it doesn't help that they sing "colored serpent coiled around your waist") or the bongo solo that ends "Shining Brightly." But, amidst all this hippie posturing, there some weird touches, like the multi-octave chromatic guitar break on "Hymn to Me" or the heavy prog jam of "What Do You Suggest?" and "Ballad of a Has-Been Beauty Queen" that illustrate how English the Brinsleys still were at this stage. All of this adds up to a debut that's decidedly uneven and unsure, but in retrospect, it's easy for sympathetic listeners to be charmed by their eccentricities.


by Stephen Thomas Erlewine, AMG
"


Tracklist:

01. Hymn To Me 04:50
02. Shining Brightly 04:20
03. Rock And Roll Women 03:19
04. Lady Constant 07:23
05. What Do You Suggest? 04:46
06. Mayfly 04:37
07. Ballad Of A Has Been Beauty Queen 10:25

Exact Audio Copy V1.1 from 23. June 2015

EAC extraction logfile from 11. July 2015, 11:31

Brinsley Schwarz / Brinsley Schwarz

Used drive : PLEXTOR BD-R PX-B950SA Adapter: 1 ID: 1

Read mode : Secure
Utilize accurate stream : Yes
Defeat audio cache : Yes
Make use of C2 pointers : No

Read offset correction

: 6
Overread into Lead-In and Lead-Out : No
Fill up missing offset samples with silence : Yes
Delete leading and trailing silent blocks : No
Null samples used in CRC calculations : Yes
Used interface
: Native Win32 interface for Win NT & 2000

Used output format : Internal WAV Routines
Sample format : 44.100 Hz; 16 Bit; Stereo

TOC of the extracted CD Track | Start | Length | Start sector | End sector
--1 | 0:00.00 | 4:50.42 | 0 | 21791 2 | 4:50.42 | 4:20.47 | 21792 | 41338 3 | 9:11.14 | 3:19.13 | 41339 | 56276 4 | 12:30.27 | 7:23.69 | 56277 | 89570 5 | 19:54.21 | 4:46.68 | 89571 | 111088 6 | 24:41.14 | 4:37.73 | 111089 | 131936 7 | 29:19.12 | 10:25.30 | 131937 | 178841

Range status and errors

Selected range Filename C:\Users\Meijin\Desktop\ALLexxess\Brinsley Schwarz\2015 Original Album Series (5CD Box Set Parlophone Records)\1970 Brinsley Schwarz\Brinsley Schwarz - Brinsley Schwarz.wav Peak level 97.7 %
Extraction speed 6.6 X
Range quality 100.0 %
Test CRC 11A6A385
Copy CRC 11A6A385
Copy OK

No errors occurred


AccurateRip summary

Track 1 accurately ripped (confidence 6) [C0EE0AE7] (AR v2)
Track 2 accurately ripped (confidence 6) [1ACECD81] (AR v2)
Track 3 accurately ripped (confidence 6) [E0879D99] (AR v2)
Track 4 accurately ripped (confidence 6) [5AC9FFCD] (AR v2)
Track 5 accurately ripped (confidence 6) [D1FD2F67] (AR v2)
Track 6 accurately ripped (confidence 6) [633421A4] (AR v2)
Track 7 accurately ripped (confidence 6) [08F9F624] (AR v2)

All tracks accurately ripped

End of status report

- CUETools DB Plugin V2.1.6

[CTDB TOCID: igxZHrCLv3aEyZIkFTkaeXT4_dQ-] found
Submit result: igxZHrCLv3aEyZIkFTkaeXT4_dQ- has been confirmed
Track | CTDB Status
1 | (3/3) Accurately ripped
2 | (3/3) Accurately ripped
3 | (3/3) Accurately ripped
4 | (3/3) Accurately ripped
5 | (3/3) Accurately ripped
6 | (3/3) Accurately ripped
7 | (3/3) Accurately ripped

==== Log checksum F941DE04ACED1C2BA89F5158BC332F8B932B285258785D302D235EE767CEF855 ====

foobar2000 1.2.9 / Dynamic Range Meter 1.1.1
log date: 2015-07-19 19:20:11

Analyzed: Brinsley Schwarz / Brinsley Schwarz

DR Peak RMS Duration Track

DR10 -0.20 dB -13.25 dB 4:51 01-Hymn To Me
DR7 -0.20 dB -10.63 dB 4:21 02-Shining Brightley
DR11 -0.20 dB -14.99 dB 3:19 03-Rock And Roll Woman
DR10 -0.20 dB -14.24 dB 7:24 04-Lady Constant
DR8 -0.20 dB -10.03 dB 4:47 05-What Do You Suggest?
DR9 -0.20 dB -12.08 dB 4:38 06-Mayflay
DR8 -0.20 dB -13.28 dB 10:25 07-Ballad Of A Has Been Beauty Queen

Number of tracks: 7
Official DR value: DR9

Samplerate: 44100 Hz
Channels: 2
Bits per sample: 16
Bitrate: 812 kbps
Codec: FLAC

[CUETools log; Date: 18.07.2015 17:38:19; Version: 2.1.4]
[CTDB TOCID: igxZHrCLv3aEyZIkFTkaeXT4_dQ-] found.
Track | CTDB Status
1 | (5/5) Accurately ripped
2 | (5/5) Accurately ripped
3 | (5/5) Accurately ripped
4 | (5/5) Accurately ripped
5 | (5/5) Accurately ripped
6 | (5/5) Accurately ripped
7 | (5/5) Accurately ripped
[AccurateRip ID: 0009a03f-003aeb92-5a095007] found.
Track [ CRC | V2 ] Status
01 [8bf3bed3|c0ee0ae7] (0+6/6) Accurately ripped
02 [e399a112|1acecd81] (0+6/6) Accurately ripped
03 [7f824bb5|e0879d99] (0+6/6) Accurately ripped
04 [3cf2d0c7|5ac9ffcd] (0+6/6) Accurately ripped
05 [769cd34d|d1fd2f67] (0+6/6) Accurately ripped
06 [853fd216|633421a4] (0+6/6) Accurately ripped
07 488b5cf|08f9f624 (0+6/6) Accurately ripped

Track Peak [ CRC32 ] [W/O NULL] [ LOG ]
-- 97,7 [11A6A385] [2496B567] CRC32
01 97,7 [096305F2] [01629A33]
02 97,7 [EC3D5EC1] [9C513940]
03 97,7 [32ED7480] [200C3B21]
04 97,7 [0C710F99] [23763AFE]
05 97,7 [E224919E] [02C890DB]
06 97,7 [F97766A5] [D263347F]
07 97,7 [AE99F164] [C315FA7D]

* * * * * *

http://i71.fastpic.ru/big/2015/0722/89/346021e8646838e0d4e5c10778178589.jpg

CD02: Brinsley Schwarz - Despite It All (1970)
EAC | Flac(Image) + Cue + Log & MP3 CBR 320Kbps
Parlophone, 2564622174-2 | ~ 258 or 106 Mb | Scans(jpg) Included
Rock | Scans(png) -> 288 Mb

"Brinsley Schwarz was hit hard by the terrible performance of their debut, so they rented a communal house and concentrated on becoming a real, organic band. They also recorded a second album swiftly, releasing Despite It All by the end of 1970. As soon as the folksy, fiddle-driven "Country Girl" amiably ambles out of the gates, the difference between the two records is apparent. They tried this kind of rootsy country-rock before, but it sounded awkward. Here, it rings true, not just because the songwriting is stronger, but because the band knows what they're doing, adding real grit and passion to the performances. Despite It All benefits from this looser playing, and for a while, it sounds like the group accomplished everything it wanted to do, since the first three songs are all early Nick Lowe masterpieces - "Country Girl," the fine ballad "The Slow One" and the flat-out terrific "Funk Angel," which is the first real flowering of his gifts as a pop tunesmith and sly humorist. After this, the record doesn't go off the rails, but it slowly loses its momentum, deteriorating to pleasant aping of CSN and Band plus the prog-inflected jams that were the bane of their debut. Some of this works - "Love Song" is a sweet tune, "Ebury Down" has a campfire charm - but when it ends with the drawn-out "Old Jarrow" (which does boast the timeless question "why don't you financially back her?" in its refrain) it's clear that the group is still in the process of finding of its voice. Their stumbles are brought into perspective by those three wonderful songs that begin the album, which not only make the record, but prove that the group does indeed have greatness in them.


by Stephen Thomas Erlewine, AMG
"


Tracklist:

01. Country Girl 03:10
02. The Slow One 05:33
03. Funk Angel 04:21
04. Piece Of Home 06:17
05. Love Song 04:10
06. Star Ship 02:40
07. Ebury Down 05:14
08. Old Jarrow 07:13

Exact Audio Copy V1.1 from 23. June 2015

EAC extraction logfile from 11. July 2015, 11:00

Brinsley Schwarz / Desipite It All

Used drive : PLEXTOR BD-R PX-B950SA Adapter: 1 ID: 1

Read mode : Secure
Utilize accurate stream : Yes
Defeat audio cache : Yes
Make use of C2 pointers : No

Read offset correction

: 6
Overread into Lead-In and Lead-Out : No
Fill up missing offset samples with silence : Yes
Delete leading and trailing silent blocks : No
Null samples used in CRC calculations : Yes
Used interface
: Native Win32 interface for Win NT & 2000

Used output format : Internal WAV Routines
Sample format : 44.100 Hz; 16 Bit; Stereo

TOC of the extracted CD Track | Start | Length | Start sector | End sector
--1 | 0:00.00 | 3:10.62 | 0 | 14311 2 | 3:10.62 | 5:33.53 | 14312 | 39339 3 | 8:44.40 | 4:21.32 | 39340 | 58946 4 | 13:05.72 | 6:17.43 | 58947 | 87264 5 | 19:23.40 | 4:10.39 | 87265 | 106053 6 | 23:34.04 | 2:40.39 | 106054 | 118092 7 | 26:14.43 | 5:14.45 | 118093 | 141687 8 | 31:29.13 | 7:13.59 | 141688 | 174221

Range status and errors

Selected range Filename C:\Users\Meijin\Desktop\ALLexxess\Brinsley Schwarz\2015 Original Album Series (5CD Box Set Parlophone Records)\1970 Despite It All\Brinsley Schwarz - Desipite It All.wav Peak level 97.7 %
Extraction speed 6.5 X
Range quality 100.0 %
Test CRC 488F1C8B
Copy CRC 488F1C8B
Copy OK

No errors occurred


AccurateRip summary

Track 1 accurately ripped (confidence 6) [21DEE0C9] (AR v2)
Track 2 accurately ripped (confidence 6) [FDE1A4C8] (AR v2)
Track 3 accurately ripped (confidence 6) [D4CC336E] (AR v2)
Track 4 accurately ripped (confidence 6) [41EB2701] (AR v2)
Track 5 accurately ripped (confidence 6) [FAA21EC3] (AR v2)
Track 6 accurately ripped (confidence 6) 3DBC882 (AR v2)
Track 7 accurately ripped (confidence 6) [6AAEB6C7] (AR v2)
Track 8 accurately ripped (confidence 6) [1534BA91] (AR v2)

All tracks accurately ripped

End of status report

- CUETools DB Plugin V2.1.6

[CTDB TOCID: 1sZaPwskAeTjUjxlrv6DgViq7MI-] found
Submit result: 1sZaPwskAeTjUjxlrv6DgViq7MI- has been confirmed
Track | CTDB Status
1 | (3/3) Accurately ripped
2 | (3/3) Accurately ripped
3 | (3/3) Accurately ripped
4 | (3/3) Accurately ripped
5 | (3/3) Accurately ripped
6 | (3/3) Accurately ripped
7 | (3/3) Accurately ripped
8 | (3/3) Accurately ripped

==== Log checksum CC236A9A3FA40E723431BD11F2B49FE8117885D55706A9F777168000E420D752 ====

foobar2000 1.2.9 / Dynamic Range Meter 1.1.1
log date: 2015-07-19 19:20:25

Analyzed: Brinsley Schwarz / Desipite It All

DR Peak RMS Duration Track

DR7 -0.20 dB -8.74 dB 3:11 01-Country Girl
DR8 -0.20 dB -12.13 dB 5:34 02-The Slow One
DR10 -0.20 dB -10.83 dB 4:21 03-Funk Angel
DR11 -0.20 dB -12.33 dB 6:18 04-Piece Of Home
DR8 -0.20 dB -9.66 dB 4:11 05-Love Song
DR9 -0.20 dB -10.47 dB 2:41 06-Starship
DR10 -0.20 dB -13.70 dB 5:15 07-Ebury Down
DR10 -0.20 dB -11.89 dB 7:14 08-Old Jarow

Number of tracks: 8
Official DR value: DR9

Samplerate: 44100 Hz
Channels: 2
Bits per sample: 16
Bitrate: 826 kbps
Codec: FLAC

[CUETools log; Date: 18.07.2015 17:40:21; Version: 2.1.4]
[CTDB TOCID: 1sZaPwskAeTjUjxlrv6DgViq7MI-] found.
Track | CTDB Status
1 | (5/5) Accurately ripped
2 | (5/5) Accurately ripped
3 | (5/5) Accurately ripped
4 | (5/5) Accurately ripped
5 | (5/5) Accurately ripped
6 | (5/5) Accurately ripped
7 | (5/5) Accurately ripped
8 | (5/5) Accurately ripped
[AccurateRip ID: 000b4a51-004c09c3-70091208] found.
Track [ CRC | V2 ] Status
01 [43775769|21dee0c9] (0+6/6) Accurately ripped
02 [ac4403bf|fde1a4c8] (0+6/6) Accurately ripped
03 [7782e917|d4cc336e] (0+6/6) Accurately ripped
04 [e1d4cdb0|41eb2701] (0+6/6) Accurately ripped
05 [d69d900a|faa21ec3] (0+6/6) Accurately ripped
06 [10ce91d9|b3dbc882] (0+6/6) Accurately ripped
07 [92e5ffeb|6aaeb6c7] (0+6/6) Accurately ripped
08 [8b368c74|1534ba91] (0+6/6) Accurately ripped

Track Peak [ CRC32 ] [W/O NULL] [ LOG ]
-- 97,7 [488F1C8B] [CB341879] CRC32
01 97,7 [768A0BF3] [D92D1935]
02 97,7 [09DD32F7] [E2375B14]
03 97,7 [4220F14B] [44B77CE4]
04 97,7 [32051EAA] [9E139EA2]
05 97,7 [C67A0A99] [057A2456]
06 97,7 [7C131533] [361CF04C]
07 97,7 [6D1F810E] [1AB39F33]
08 97,7 [669B4457] [8E1B0637]

* * * * * *

http://i71.fastpic.ru/big/2015/0722/39/2e3e07df273910b047e3bb3d8889f739.jpg

CD03: Brinsley Schwarz - Silver Pistol (1971)
EAC | Flac(Image) + Cue + Log & MP3 CBR 320Kbps
Parlophone, 2564622174-3 | ~ 255 or 110 Mb | Scans(jpg) Included
Rock | Scans(png) -> 288 Mb

"Silver Pistol isn't the definitive pub rock album, but it is the first great record to surface from the scene. Like much of the first wave of pub rock, Silver Pistol is quiet, laid-backm and low-key -- with its warm, rustic sound and a gentleness that infuses even the rockers, this is the closest to the Band that the Brinsleys got. There are some major differences, most of them coming from Nick Lowe. That's not to denigrate new guitarist/songwriter Ian Gomm, since his four numbers (particularly "Dry Land" and "Range War") reveal a fine songwriter with a keen sense of melody and a knack for synthesizing country, rock, and folk into something distinctive, but Lowe really hits his stride with this record. This is in to some degree due to the influence of Jim Ford, a renegade American roots-rocker who Brinsley Schwarz backed on an unreleased and subsequently lost 1971 album. The group covers two of his songs, "Niki Hoeke Speedway" and "Ju Ju Man," on Silver Pistol, and these numbers reveal the appealingly off-kilter sense of humor and pop hooks that would form the foundation of Lowe's style. Those sensibilities are just beginning to creep into his songwriting on Silver Pistol, on the Beatles-meets-Band "Unknown Number," the lovely "Nightingale," the wonderful pop tune "The Last Time I Was Fooled," and the epic "Silver Pistol." His other two songs are sturdy country-rock numbers a notch below Gomm's best on the record, but still very good, and it all adds up to an endearing low-key roots rock album that doesn't just find Brinsley Schwarz coming into their own, it stands as one of the most appealing records of its kind.


by Stephen Thomas Erlewine, AMG
"


Tracklist:

01. Dry Land 02:42
02. Merry Go Round 04:11
03. One More Day 02:54
04. Nightingale 03:07
05. Silver Pistol 03:38
06. The Last Time I Was Fooled 04:05
07. Unknown Number 02:58
08. Range War 02:34
09. Egypt 05:23
10. Nicki Hoeke Speedway 03:30
11. Ju Ju Man 03:37
12. Rockin' Chair 02:27

Exact Audio Copy V1.1 from 23. June 2015

EAC extraction logfile from 11. July 2015, 10:37

Brinsley Schwarz / Silver Pistol

Used drive : PLEXTOR BD-R PX-B950SA Adapter: 1 ID: 1

Read mode : Secure
Utilize accurate stream : Yes
Defeat audio cache : Yes
Make use of C2 pointers : No

Read offset correction

: 6
Overread into Lead-In and Lead-Out : No
Fill up missing offset samples with silence : Yes
Delete leading and trailing silent blocks : No
Null samples used in CRC calculations : Yes
Used interface
: Native Win32 interface for Win NT & 2000

Used output format : Internal WAV Routines
Sample format : 44.100 Hz; 16 Bit; Stereo

TOC of the extracted CD Track | Start | Length | Start sector | End sector
--1 | 0:00.00 | 2:42.48 | 0 | 12197 2 | 2:42.48 | 4:11.00 | 12198 | 31022 3 | 6:53.48 | 2:54.55 | 31023 | 44127 4 | 9:48.28 | 3:07.37 | 44128 | 58189 5 | 12:55.65 | 3:38.20 | 58190 | 74559 6 | 16:34.10 | 4:05.40 | 74560 | 92974 7 | 20:39.50 | 2:58.00 | 92975 | 106324 8 | 23:37.50 | 2:34.20 | 106325 | 117894 9 | 26:11.70 | 5:23.08 | 117895 | 142127
10 | 31:35.03 | 3:30.20 | 142128 | 157897
11 | 35:05.23 | 3:37.05 | 157898 | 174177
12 | 38:42.28 | 2:27.67 | 174178 | 185269

Range status and errors

Selected range Filename C:\Users\Meijin\Desktop\ALLexxess\Brinsley Schwarz\2015 Original Album Series (5CD Box Set Parlophone Records)\1971 Silver Pistol\Brinsley Schwarz - Silver Pistol.wav Peak level 100.0 %
Extraction speed 6.6 X
Range quality 100.0 %
Test CRC 926FBA69
Copy CRC 926FBA69
Copy OK

No errors occurred


AccurateRip summary

Track 1 accurately ripped (confidence 6) [9C585ED8] (AR v2)
Track 2 accurately ripped (confidence 6) [9A0BCF43] (AR v2)
Track 3 accurately ripped (confidence 6) [9EB538E6] (AR v2)
Track 4 accurately ripped (confidence 6) [0F5754B5] (AR v2)
Track 5 accurately ripped (confidence 6) [6942F048] (AR v2)
Track 6 accurately ripped (confidence 6) [35EC3E25] (AR v2)
Track 7 accurately ripped (confidence 6) [51824662] (AR v2)
Track 8 accurately ripped (confidence 6) [9B7160DD] (AR v2)
Track 9 accurately ripped (confidence 6) [C4FE6674] (AR v2)
Track 10 accurately ripped (confidence 6) [2ECF0D55] (AR v2)
Track 11 accurately ripped (confidence 6) [7115F488] (AR v2)
Track 12 accurately ripped (confidence 6) [EBDD2B35] (AR v2)

All tracks accurately ripped

End of status report

- CUETools DB Plugin V2.1.6

[CTDB TOCID: 1b.8m25CvrPLogkWV51zl4OysoI-] found
Submit result: 1b.8m25CvrPLogkWV51zl4OysoI- has been confirmed
Track | CTDB Status
1 | (3/3) Accurately ripped
2 | (3/3) Accurately ripped
3 | (3/3) Accurately ripped
4 | (3/3) Accurately ripped
5 | (3/3) Accurately ripped
6 | (3/3) Accurately ripped
7 | (3/3) Accurately ripped
8 | (3/3) Accurately ripped
9 | (3/3) Accurately ripped
10 | (3/3) Accurately ripped
11 | (3/3) Accurately ripped
12 | (3/3) Accurately ripped

==== Log checksum FD3F92FE1432CB4ACB2D340DE3D0DE61B7B2A4690851B473B5522DA8F5529EEB ====

foobar2000 1.2.9 / Dynamic Range Meter 1.1.1
log date: 2015-07-19 19:20:41

Analyzed: Brinsley Schwarz / Silver Pistol

DR Peak RMS Duration Track

DR12 -0.78 dB -15.81 dB 2:43 01-Dry Land
DR14 -0.30 dB -17.56 dB 4:11 02-Merry Go Round
DR13 -0.20 dB -16.67 dB 2:55 03-One More Day
DR14 -0.43 dB -18.01 dB 3:07 04-Nightingale
DR14 0.00 dB -17.16 dB 3:38 05-Silver Pistol
DR14 -1.40 dB -18.33 dB 4:06 06-The Last Time I Was Fooled
DR13 0.00 dB -16.58 dB 2:58 07-Unknown Number
DR13 -0.44 dB -16.64 dB 2:34 08-Range War
DR16 0.00 dB -21.82 dB 5:23 09-Egypt
DR16 -0.68 dB -19.05 dB 3:30 10-Niki Hoeke Speedway
DR14 -0.30 dB -17.30 dB 3:37 11-Ju Ju Man
DR14 0.00 dB -18.77 dB 2:28 12-Rockin' Chair

Number of tracks: 12
Official DR value: DR14

Samplerate: 44100 Hz
Channels: 2
Bits per sample: 16
Bitrate: 769 kbps
Codec: FLAC

[CUETools log; Date: 18.07.2015 17:42:04; Version: 2.1.4]
[CTDB TOCID: 1b.8m25CvrPLogkWV51zl4OysoI-] found.
Track | CTDB Status
1 | (5/5) Accurately ripped
2 | (5/5) Accurately ripped
3 | (5/5) Accurately ripped
4 | (5/5) Accurately ripped
5 | (5/5) Accurately ripped
6 | (5/5) Accurately ripped
7 | (5/5) Accurately ripped
8 | (5/5) Accurately ripped
9 | (5/5) Accurately ripped
10 | (5/5) Accurately ripped
11 | (5/5) Accurately ripped
12 | (5/5) Accurately ripped
[AccurateRip ID: 001242e0-00abaf74-a709a60c] found.
Track [ CRC | V2 ] Status
01 [0abcac78|9c585ed8] (0+6/6) Accurately ripped
02 [5f2029ba|9a0bcf43] (0+6/6) Accurately ripped
03 [233ff8bc|9eb538e6] (0+6/6) Accurately ripped
04 [e5820fc4|0f5754b5] (0+6/6) Accurately ripped
05 [49de528f|6942f048] (0+6/6) Accurately ripped
06 [2278f8ac|35ec3e25] (0+6/6) Accurately ripped
07 [ce5584e2|51824662] (0+6/6) Accurately ripped
08 [2b91e1b5|9b7160dd] (0+6/6) Accurately ripped
09 [846e6912|c4fe6674] (0+6/6) Accurately ripped
10 [1df2e00e|2ecf0d55] (0+6/6) Accurately ripped
11 2713f80|7115f488 (0+6/6) Accurately ripped
12 [c1929392|ebdd2b35] (0+6/6) Accurately ripped

Track Peak [ CRC32 ] [W/O NULL] [ LOG ]
-- 100,0 [926FBA69] [C9ECCB5F] CRC32
01 91,3 [A957895E] [28125745]
02 96,6 [8E04D96F] [DC440D7A]
03 97,6 [18CDD4E0] [61FF35A0]
04 95,2 [D7566754] [A02DDD4D]
05 100,0 [54C58F63] [CA513A11]
06 85,1 [1C486967] [4D860460]
07 100,0 [39A523F3] [C42A81F4]
08 95,0 [AB710B46] [91C590DB]
09 100,0 [71E26135] [4C057A6E]
10 92,4 [5C0547C0] [DF3F08C4]
11 96,5 [CBDA3E36] 1F7F072
12 100,0 [60FABEE1] [4F551BCF]

* * * * * *

http://i69.fastpic.ru/big/2015/0722/2b/70bbc21bc48250e1b10125ea6006a02b.jpg

CD04: Brinsley Schwarz - Nervous On The Road (1972)
EAC | Flac(Image) + Cue + Log & MP3 CBR 320Kbps
Parlophone, 2564622174-4 | ~ 259 or 108 Mb | Scans(jpg) Included
Rock | Scans(png) -> 288 Mb

"Silver Pistol wrote the blueprint for Brinsley Schwarz's pub rock, but Nervous on the Road perfected the group's sound, helping Brinsley to become the definitive pub rock band in the process. Nervous on the Road has a fuller, more detailed production than its predecessor, as well as a looser feeling -- even with the smooth production, it sounds like the band was captured on a good night at the Tally Ho. But what really makes the record is its excellent selection of songs, almost all of which were written by Nick Lowe. "Happy Doing What We're Doing," "Surrender to the Rhythm," and "Nervous on the Road" are all great rock & roll songs about rock & roll, spiked with an off-kilter sense of humor. "Don't Lose Your Grip on Love" is Lowe's first great ballad, while Ian Gomm's "It's Been So Long" is one of his best songs. And the covers of "I Like It Like That" and "Home in My Hand" are wonderful pub rockers, giving the album the feeling of an excellent concert. Nevertheless, what makes Nervous on the Road such a fine record is the combination of empathetic performances, unpredictable songwriting, and charming unpretentiousness, all of which help make the album one of the great forgotten rock & roll records.


by Stephen Thomas Erlewine, AMG
"


Tracklist:

01. It's Been So Long 02:07
02. Happy Doing What We're Doing 04:43
03. Surrender To The Rhythm 03:25
04. Don't Lose Your Grip On Love 04:25
05. Nervous On The Road (But Can't Stay At Home) 04:58
06. Feel A Little Funky 05:09
07. I Like It Like That 03:05
08. Brand New You, Brand New Me 04:39
09. Home In My Hand 02:56
10. Why, Why, Why, Why, Why 03:49

Exact Audio Copy V1.1 from 23. June 2015

EAC extraction logfile from 11. July 2015, 10:14

Brinsley Schwarz / Nervous On The Road

Used drive : PLEXTOR BD-R PX-B950SA Adapter: 1 ID: 1

Read mode : Secure
Utilize accurate stream : Yes
Defeat audio cache : Yes
Make use of C2 pointers : No

Read offset correction

: 6
Overread into Lead-In and Lead-Out : No
Fill up missing offset samples with silence : Yes
Delete leading and trailing silent blocks : No
Null samples used in CRC calculations : Yes
Used interface
: Native Win32 interface for Win NT & 2000

Used output format : Internal WAV Routines
Sample format : 44.100 Hz; 16 Bit; Stereo

TOC of the extracted CD Track | Start | Length | Start sector | End sector
--1 | 0:00.00 | 2:07.25 | 0 | 9549 2 | 2:07.25 | 4:43.23 | 9550 | 30797 3 | 6:50.48 | 3:25.20 | 30798 | 46192 4 | 10:15.68 | 4:25.38 | 46193 | 66105 5 | 14:41.31 | 4:58.55 | 66106 | 88510 6 | 19:40.11 | 5:09.45 | 88511 | 111730 7 | 24:49.56 | 3:05.70 | 111731 | 125675 8 | 27:55.51 | 4:39.57 | 125676 | 146657 9 | 32:35.33 | 2:56.28 | 146658 | 159885
10 | 35:31.61 | 3:49.05 | 159886 | 177065

Range status and errors

Selected range Filename C:\Users\Meijin\Desktop\ALLexxess\Brinsley Schwarz\2015 Original Album Series (5CD Box Set Parlophone Records)\1972 Nervous On The Road\Brinsley Schwarz - Nervous On The Road.wav Peak level 97.8 %
Extraction speed 6.4 X
Range quality 99.9 %
Test CRC 09591730
Copy CRC 09591730
Copy OK

No errors occurred


AccurateRip summary

Track 1 accurately ripped (confidence 6) [A6914E90] (AR v2)
Track 2 accurately ripped (confidence 6) [C5C22C82] (AR v2)
Track 3 accurately ripped (confidence 6) [08FF20B5] (AR v2)
Track 4 accurately ripped (confidence 6) [CC05A432] (AR v2)
Track 5 accurately ripped (confidence 6) [1A1E84BC] (AR v2)
Track 6 accurately ripped (confidence 6) [E5C59292] (AR v2)
Track 7 accurately ripped (confidence 6) [E8DF9B50] (AR v2)
Track 8 accurately ripped (confidence 6) 517FF13 (AR v2)
Track 9 accurately ripped (confidence 6) [1F9E81EA] (AR v2)
Track 10 accurately ripped (confidence 6) [2B4FF90B] (AR v2)

All tracks accurately ripped

End of status report

- CUETools DB Plugin V2.1.6

[CTDB TOCID: ks7vWlbZ36ZJUvsZ9J2UNqoJrtk-] found
Submit result: ks7vWlbZ36ZJUvsZ9J2UNqoJrtk- has been confirmed
Track | CTDB Status
1 | (3/3) Accurately ripped
2 | (3/3) Accurately ripped
3 | (3/3) Accurately ripped
4 | (3/3) Accurately ripped
5 | (3/3) Accurately ripped
6 | (3/3) Accurately ripped
7 | (3/3) Accurately ripped
8 | (3/3) Accurately ripped
9 | (3/3) Accurately ripped
10 | (3/3) Accurately ripped

==== Log checksum 9CB1F8468A7BD24DEB3137D1F4890A688417B24A03183AD46DCE8C506B5FE00B ====

foobar2000 1.2.9 / Dynamic Range Meter 1.1.1
log date: 2015-07-19 19:20:57

Analyzed: Brinsley Schwarz / Nervous On The Road

DR Peak RMS Duration Track

DR9 -0.19 dB -10.67 dB 2:07 01-It's Been So Long
DR9 -0.83 dB -11.51 dB 4:43 02-Happy Doing What We're Doing
DR9 -0.84 dB -11.26 dB 3:25 03-Surrender To The Rhythm
DR11 -0.42 dB -15.20 dB 4:26 04-Don't Lose Your Grip On Love
DR10 -0.77 dB -12.18 dB 4:59 05-Nervous On The Road (But Can't Stay At Home)
DR8 -0.62 dB -11.45 dB 5:10 06-Feel A Little Funky
DR10 -1.26 dB -12.67 dB 3:06 07-I Like It Like That
DR10 -0.32 dB -13.30 dB 4:40 08-Brand New You, Brand New Me
DR9 -0.55 dB -10.81 dB 2:56 09-Home In My Hand
DR7 -0.58 dB -9.59 dB 3:49 10-Why, Why, Why, Why, Why

Number of tracks: 10
Official DR value: DR9

Samplerate: 44100 Hz
Channels: 2
Bits per sample: 16
Bitrate: 820 kbps
Codec: FLAC

[CUETools log; Date: 18.07.2015 17:45:22; Version: 2.1.4]
[CTDB TOCID: ks7vWlbZ36ZJUvsZ9J2UNqoJrtk-] found.
Track | CTDB Status
1 | (5/5) Accurately ripped
2 | (5/5) Accurately ripped
3 | (5/5) Accurately ripped
4 | (5/5) Accurately ripped
5 | (5/5) Accurately ripped
6 | (5/5) Accurately ripped
7 | (5/5) Accurately ripped
8 | (5/5) Accurately ripped
9 | (5/5) Accurately ripped
10 | (5/5) Accurately ripped
[AccurateRip ID: 000eae7f-00773338-8509380a] found.
Track [ CRC | V2 ] Status
01 [ab357c64|a6914e90] (0+6/6) Accurately ripped
02 [fdb54c4a|c5c22c82] (0+6/6) Accurately ripped
03 50994de|08ff20b5 (0+6/6) Accurately ripped
04 [01e210f4|cc05a432] (0+6/6) Accurately ripped
05 [9eb9fbb2|1a1e84bc] (0+6/6) Accurately ripped
06 [03480332|e5c59292] (0+6/6) Accurately ripped
07 [4e61f71a|e8df9b50] (0+6/6) Accurately ripped
08 [cd8ed89b|b517ff13] (0+6/6) Accurately ripped
09 [5fe94806|1f9e81ea] (0+6/6) Accurately ripped
10 [e18fa16c|2b4ff90b] (0+6/6) Accurately ripped

Track Peak [ CRC32 ] [W/O NULL] [ LOG ]
-- 97,8 [09591730] [47AE1E40] CRC32
01 97,8 [E65E0F70] [2AAF86C0]
02 90,8 [D6AC2EAA] [4818853E]
03 90,7 [1C2EDFA3] [0BDDA56B]
04 95,2 [EA49DFCF] [F8B16B0A]
05 91,5 [792DD8EA] [D2A109EE]
06 93,1 [947C81D0] [71CEC513]
07 86,5 [845762AF] [5F180653]
08 96,4 [C30223CC] [73FE100B]
09 93,8 [F0DEC275] [D378762E]
10 93,5 [24C521E5] [8AB3F490]

* * * * * *

http://i70.fastpic.ru/big/2015/0722/dd/8000c4ef3696ed3867bc46bdf0e9e7dd.jpg

CD05: Brinsley Schwarz - Please Don't Ever Change (1973)
EAC | Flac(Image) + Cue + Log & MP3 CBR 320Kbps
Parlophone, 2564622174-5 | ~ 231 or 104 Mb | Scans(jpg) Included
Rock | Scans(png) -> 288 Mb

"Released in 1973 as Brinsley Schwarz was busy touring and recording the follow-up to Nervous on the Road, Please Don't Ever Change is a collection of singles, live cuts, and radio sessions from the early '70s. The odds-and-sods nature of the record actually works in its favor, since it accentuates the group's ramshackle nature. Sure, there's a fair amount of filler on the record -- their ill-advised reggae excursion "The Version (Hypocrite)" is simply mystifying -- but unevenness was part of the Brinsleys' charm, and the simply enjoyable cuts make the best tracks feel like classics. And some of them are definitive Brinsley cuts. "I Worry ('Bout You Baby)" is a revamped R&B number, the live "Home in My Hand" speeds along with a relentless energy, the cover of Goffin/King's "Don't Ever Change" indicates Nick Lowe's latent pop roots, "Down in Mexico" is a hysterical travelogue, and "Play That Fast Thing (One More Time)" is among the classic pub rock singles, distilling the essence of pub rock into one piledriving song.


by Stephen Thomas Erlewine, AMG
"


Tracklist:

01. Hooked On Love 02:35
02. Why Do We Hurt The One We Love? 03:46
03. I Worry ('Bout You Baby) 03:01
04. Don't Ever Change 03:49
05. Home In My Land (Live) 05:25
06. Play That Fast Thing (One More Time) 04:22
07. I Won't Make It Without You 04;19
08. Down In Mexico 03:17
09. Speedoo 02:32
10. The Version (Hypocrite) 02:56

Exact Audio Copy V1.1 from 23. June 2015

EAC extraction logfile from 11. July 2015, 9:41

Brinsley Schwarz / Please Don't Ever Change

Used drive : PLEXTOR BD-R PX-B950SA Adapter: 1 ID: 1

Read mode : Secure
Utilize accurate stream : Yes
Defeat audio cache : Yes
Make use of C2 pointers : No

Read offset correction

: 6
Overread into Lead-In and Lead-Out : No
Fill up missing offset samples with silence : Yes
Delete leading and trailing silent blocks : No
Null samples used in CRC calculations : Yes
Used interface
: Native Win32 interface for Win NT & 2000

Used output format : Internal WAV Routines
Sample format : 44.100 Hz; 16 Bit; Stereo

TOC of the extracted CD Track | Start | Length | Start sector | End sector
--1 | 0:00.00 | 2:35.23 | 0 | 11647 2 | 2:35.23 | 3:46.57 | 11648 | 28654 3 | 6:22.05 | 3:01.05 | 28655 | 42234 4 | 9:23.10 | 3:49.08 | 42235 | 59417 5 | 13:12.18 | 5:25.30 | 59418 | 83822 6 | 18:37.48 | 4:22.30 | 83823 | 103502 7 | 23:00.03 | 4:19.02 | 103503 | 122929 8 | 27:19.05 | 3:47.50 | 122930 | 140004 9 | 31:06.55 | 2:32.13 | 140005 | 151417
10 | 33:38.68 | 2:56.32 | 151418 | 164649

Range status and errors

Selected range Filename C:\Users\Meijin\Desktop\ALLexxess\Brinsley Schwarz\2015 Original Album Series (5CD Box Set Parlophone Records)\1973 Please Don't Ever Change\Brinsley Schwarz - Please Don't Ever Change.wav Peak level 100.0 %
Extraction speed 6.4 X
Range quality 100.0 %
Test CRC 5D5BC08C
Copy CRC 5D5BC08C
Copy OK

No errors occurred


AccurateRip summary

Track 1 accurately ripped (confidence 6) [3F4E4F21] (AR v2)
Track 2 accurately ripped (confidence 6) [589D8067] (AR v2)
Track 3 accurately ripped (confidence 6) [81AF35F5] (AR v2)
Track 4 accurately ripped (confidence 6) [D804D4E7] (AR v2)
Track 5 accurately ripped (confidence 6) [D1B51A4F] (AR v2)
Track 6 accurately ripped (confidence 6) [CB025EBD] (AR v2)
Track 7 accurately ripped (confidence 6) [7198F396] (AR v2)
Track 8 accurately ripped (confidence 6) [EDF4AB12] (AR v2)
Track 9 accurately ripped (confidence 6) [41CD4021] (AR v2)
Track 10 accurately ripped (confidence 6) [7F424B36] (AR v2)

All tracks accurately ripped

End of status report

- CUETools DB Plugin V2.1.6

[CTDB TOCID: Wavd5PfajlmgIPG8_4vpTKCkbd8-] found
Submit result: Wavd5PfajlmgIPG8_4vpTKCkbd8- has been confirmed
Track | CTDB Status
1 | (3/3) Accurately ripped
2 | (3/3) Accurately ripped
3 | (3/3) Accurately ripped
4 | (3/3) Accurately ripped
5 | (3/3) Accurately ripped
6 | (3/3) Accurately ripped
7 | (3/3) Accurately ripped
8 | (3/3) Accurately ripped
9 | (3/3) Accurately ripped
10 | (3/3) Accurately ripped

==== Log checksum AA98C6501CC4A3A8942F04FCF6B39A5CE86933A5F735EF6A99A986746BD47080 ====

foobar2000 1.2.9 / Dynamic Range Meter 1.1.1
log date: 2015-07-19 19:21:10

Analyzed: Brinsley Schwarz / Please Don't Ever Change

DR Peak RMS Duration Track

DR10 -0.99 dB -12.98 dB 2:35 01-Hooked On Love
DR11 -1.01 dB -12.97 dB 3:47 02-Why Do We Hurt The One We Love?
DR12 0.00 dB -13.06 dB 3:01 03-I Worry ('Bout You Baby)
DR11 -0.81 dB -13.40 dB 3:49 04-Don't Ever Change
DR11 -1.89 dB -15.16 dB 5:25 05-Home In My Land (Live)
DR10 -0.93 dB -12.50 dB 4:22 06-Play That Fast Thing (One More Time)
DR12 -1.37 dB -14.53 dB 4:19 07-I Won't Make It Without You
DR12 -0.43 dB -14.26 dB 3:48 08-Down In Mexico
DR11 -1.63 dB -13.67 dB 2:32 09-Speedoo
DR11 -2.99 dB -16.17 dB 2:56 10-The Version (Hypocrite)

Number of tracks: 10
Official DR value: DR11

Samplerate: 44100 Hz
Channels: 2
Bits per sample: 16
Bitrate: 815 kbps
Codec: FLAC

[CUETools log; Date: 18.07.2015 17:45:34; Version: 2.1.4]
[CTDB TOCID: Wavd5PfajlmgIPG8_4vpTKCkbd8-] found.
Track | CTDB Status
1 | (5/5) Accurately ripped
2 | (5/5) Accurately ripped
3 | (5/5) Accurately ripped
4 | (5/5) Accurately ripped
5 | (5/5) Accurately ripped
6 | (5/5) Accurately ripped
7 | (5/5) Accurately ripped
8 | (5/5) Accurately ripped
9 | (5/5) Accurately ripped
10 | (5/5) Accurately ripped
[AccurateRip ID: 000ddbfd-00707b2e-8308930a] found.
Track [ CRC | V2 ] Status
01 [3a840440|3f4e4f21] (0+6/6) Accurately ripped
02 [f90dbaa1|589d8067] (0+6/6) Accurately ripped
03 [c4c935a9|81af35f5] (0+6/6) Accurately ripped
04 [cd1ec404|d804d4e7] (0+6/6) Accurately ripped
05 793617f|d1b51a4f (0+6/6) Accurately ripped
06 [9271ee7a|cb025ebd] (0+6/6) Accurately ripped
07 [7cfd5bc3|7198f396] (0+6/6) Accurately ripped
08 [00a91a14|edf4ab12] (0+6/6) Accurately ripped
09 [966b307e|41cd4021] (0+6/6) Accurately ripped
10 [00887fd6|7f424b36] (0+6/6) Accurately ripped

Track Peak [ CRC32 ] [W/O NULL] [ LOG ]
-- 100,0 [5D5BC08C] [C3194712] CRC32
01 89,2 [2F73816A] [89E7484C]
02 89,0 [9A41DA04] [C9807F1F]
03 100,0 [C70E0684] [5BB2FFEF]
04 91,1 [0CC58D0F] [1C0A5799]
05 80,4 [643BBFB0] [3F350672]
06 89,8 [7129C172] [420A4A32]
07 85,4 [D85DA7D9] [5EDF886D]
08 95,1 A288CA2 840F521
09 82,9 [86B6FA04] [AAB16062]
10 70,8 [696C0317] [50682690]

http://i69.fastpic.ru/big/2015/0722/44/2b3f87dcf31f544b976a3baa97914844.jpg

DOWNLOAD LINKS:
Buy Premium To Support Me & Get Resumable Support & Max Speed


Links are Interchangeable - No Password - Single Extraction

Original Album Series: Brinsley Schwarz (2015) Fast Download


Ad2

 
 
 
Dear visitor, you went to the site as an unregistered user. We encourage you to register or enter the site under your name.
 
   
 
 (Votes #: 0)