2013Zone For Latest Downloads

 
     
 
Legal Downloads » TV Shows » PBS - POV: Tea Time (2015)
Menu
Home Applications
Games Movies
Music TV Shows
Torrents Graphics

Sitemap

RSS
 
Advanced Search
Last News
Site Info
Top Contributors:
  1    supper88 32766
  2    admin 32711
  3    Whisky 10080
  4    Shark_ 8911
  5    creativelivenew 8706
  6    whathesupa 2799
  7    candymypost 840
  8    hvnteam 629
  9    vuong87 3


Articles:
  This Hour: 0
  Today: 0
  This Month: 12
  All Time: 515506


Torrents:
  Today: 0
  Yesterday: 0
  All Time: 156680


Membership:
  Registered Today :0
  This Hour:0
  This Month:0
  Total:14
  Banned:1

{online}
{inform_torrent}
Friend:
Full Download Scripts
Torrent Download
Trend
Trend

Search In Site

TV Shows : PBS - POV: Tea Time (2015)
 

http://i70.fastpic.ru/big/2015/0730/11/6cb52b4bb386c755aa3a9d9edeb7da11.jpg
PBS - POV: Tea Time (2015)
HDTV | 1280x720 | .MKV/AVC @ 2697 Kbps | 55mn 30s | Audio: English AC3 384 kbps, 2 channels | Subs: English | 1.22 GiB
Genre: Documentary

"Ritual is often associated with powerful and impersonal institutions, but for five Chilean women, ritual centers on a monthly gathering that has sustained them through 60 years of personal and societal change. Tea Time is a charming and poignant look at how a seemingly mundane routine of tea and pastries has helped the well-heeled participants commemorate life's joys and cope with infidelity, illness and death. A celebration of the small things that help us endure, Tea Time, filmed over five years, illuminates a beautiful paradox: As familiar worlds slip away, friendships grow ever stronger and more profound."

General
Unique ID
: 205820021384791841168167540540657454760 (0x9AD77E861D8D5EDB9C900BD1D79D4EA8)
Complete name : pov.tea.time.mkv
Format
: Matroska
Format version : Version 4 / Version 2
File size
: 1.22 GiB
Duration
: 55mn 30s
Overall bit rate : 3 143 Kbps

Video
ID : 1
Format
: AVC
Format/Info
: Advanced Video Codec
Format profile : [email protected]
Format settings, CABAC : Yes
Format settings, ReFrames : 5 frames
Codec ID
: V_MPEG4/ISO/AVC
Duration
: 55mn 30s
Bit rate
: 2 697 Kbps
Width
: 1 280 pixels
Height
: 720 pixels
Display aspect ratio : 16:9
Frame rate
: 23.976 fps
Color space
: YUV
Chroma subsampling

: 4:2:0
Bit depth
: 8 bits
Scan type
: Progressive
Bits/(Pixel*Frame)

: 0.122
Stream size
: 1.05 GiB (86%)
Writing library : x264 core 146 r2538 121396c
Encoding settings: cabac=1 / ref=5 / deblock=1:0:0 / analyse=0x3:0x113 / me=umh / subme=8 / psy=1 / psy_rd=1.00:0.00 / mixed_ref=1 / me_range=16 / chroma_me=1 / trellis=1 / 8x8dct=1 / cqm=0 / deadzone=21,11 / fast_pskip=1 / chroma_qp_offset=-2 / threads=12 / lookahead_threads=2 / sliced_threads=0 / nr=0 / decimate=1 / interlaced=0 / bluray_compat=0 / constrained_intra=0 / bframes=3 / b_pyramid=2 / b_adapt=2 / b_bias=0 / direct=3 / weightb=1 / open_gop=0 / weightp=2 / keyint=250 / keyint_min=25 / scenecut=40 / intra_refresh=0 / rc_lookahead=50 / rc=crf / mbtree=1 / crf=20.0 / qcomp=0.60 / qpmin=0 / qpmax=69 / qpstep=4 / ip_ratio=1.40 / aq=1:1.00
Language
: English
Default
: Yes
Forced
: No

Audio
ID : 2
Format
: AC-3
Format/Info
: Audio Coding 3
Mode extension : CM (complete main)
Format settings, Endianness : Big
Codec ID
: A_AC3
Duration
: 55mn 30s
Bit rate mode : Constant
Bit rate
: 384 Kbps
Channel(s)
: 2 channels
Channel positions: Front: L R
Sampling rate : 48.0 KHz
Bit depth
: 16 bits
Compression mode : Lossy
Stream size
: 152 MiB (12%)
Language
: English
Default
: Yes
Forced
: No

Text
ID : 3
Format
: UTF-8
Codec ID
: S_TEXT/UTF8
Codec ID/Info : UTF-8 Plain Text
Language
: English
Default
: No
Forced
: No

Screenshots:

http://i71.fastpic.ru/big/2015/0730/84/bed1203b6be0a4e55214e089fb74f784.jpg

http://i72.fastpic.ru/big/2015/0730/92/f4a9ba8c6bbad5c66bd6ea7bd79c6392.jpg

http://i72.fastpic.ru/big/2015/0730/26/4a6608c400cf40185b42ac781de62f26.jpg

http://i70.fastpic.ru/big/2015/0730/09/3d9ac0051e45c7660d6dd59ca11fcc09.jpg


DOWNLOAD LINKS:
Buy Premium To Support Me & Get Resumable Support & Max Speed


Links are Interchangeable - No Password - Single Extraction

PBS - POV: Tea Time (2015) Fast Download



 
 
 
Dear visitor, you went to the site as an unregistered user. We encourage you to register or enter the site under your name.
 
   
 
 (Votes #: 0)