2013Zone For Latest Downloads

 
     
 
Legal Downloads » Music » Wishbone Ash - Wishbone Ash (1970/1992)
Menu
Home Applications
Games Movies
Music TV Shows
Torrents Graphics

Sitemap

RSS
 
Advanced Search
Last News
Site Info
Top Contributors:
  1    supper88 32766
  2    admin 32711
  3    Whisky 10080
  4    Shark_ 8911
  5    creativelivenew 8706
  6    whathesupa 2799
  7    candymypost 840
  8    hvnteam 629
  9    vuong87 3


Articles:
  This Hour: 0
  Today: 0
  This Month: 12
  All Time: 515504


Torrents:
  Today: 0
  Yesterday: 0
  All Time: 156679


Membership:
  Registered Today :0
  This Hour:0
  This Month:0
  Total:14
  Banned:1

{online}
{inform_torrent}
Friend:
Full Download Scripts
Torrent Download
Trend
Trend

Search In Site

Music : Wishbone Ash - Wishbone Ash (1970/1992)
 
http://i69.fastpic.ru/big/2015/0808/3c/d3de7ea32a4b75e182b5033484c8f53c.jpg

Wishbone Ash - Wishbone Ash (1970/1992)
EAC Rip | FLAC (Img) + Cue + Log ~ 291 Mb | MP3 CBR320 ~ 131 Mb
Scans Included (JPG, 300 dpi) | RAR 5% Recovery
Hard/Prog/Blues/Psychedelic Rock | MCA Records #MCAD 10661

"Wishbone Ash is the first studio album by Wishbone Ash. The band's debut album became a reality when they were opening for Deep Purple in early 1970. Deep Purple guitarist Ritchie Blackmore was jamming during the band's soundcheck when Wishbone guitarist Andy Powell boldly plugged in and began jamming with Blackmore. After the show, Blackmore recommended that MCA Records sign the band. Deep Purple producer Derek Lawrence produced this album, which features elements of blues, progressive rock, and psychedelic improvisation. The album was a success and Wishbone Ash would soon become one of the most popular rock bands of the early 1970s."

Official Website | Wiki | Discogs | All Music
***************

http://i70.fastpic.ru/big/2015/0808/8a/daf32b22b114f92c80442d0fe28bdf8a.jpg

Track List:

01. Blind Eye [03:46]
02. Lady Whiskey [06:14]
03. Errors Of My Way [06:57]
04. Queen Of Torture [03:24]
05. Handy [11:38]
06. Phoenix [10:26]

Exact Audio Copy V1.0 beta 1 from 15. November 2010

EAC extraction logfile from 28. December 2014, 21:39

Wishbone Ash / Wishbone Ash

Used drive : MATSHITADVD-RAM UJ8A0AS Adapter: 0 ID: 1

Read mode : Secure
Utilize accurate stream : Yes
Defeat audio cache : Yes
Make use of C2 pointers : No

Read offset correction

: 102
Overread into Lead-In and Lead-Out : No
Fill up missing offset samples with silence : Yes
Delete leading and trailing silent blocks : No
Null samples used in CRC calculations : Yes
Used interface
: Native Win32 interface for Win NT & 2000

Used output format : Internal WAV Routines
Sample format : 44.100 Hz; 16 Bit; Stereo

TOC of the extracted CD Track | Start | Length | Start sector | End sector
--1 | 0:00.00 | 3:45.25 | 0 | 16899 2 | 3:45.25 | 6:13.10 | 16900 | 44884 3 | 9:58.35 | 6:56.67 | 44885 | 76151 4 | 16:55.27 | 3:23.55 | 76152 | 91431 5 | 20:19.07 | 11:37.10 | 91432 | 143716 6 | 31:56.17 | 10:25.45 | 143717 | 190636

Range status and errors

Selected range Filename C:\Users\Alex\Music\Wishbone Ash - Wishbone Ash.wav Peak level 100.0 %
Extraction speed 0.3 X
Range quality 100.0 %
Test CRC 43B0039A
Copy CRC 43B0039A
Copy OK

No errors occurred


AccurateRip summary

Track 1 accurately ripped (confidence 10) [15EF930E]
Track 2 accurately ripped (confidence 10) [ACECE42A]
Track 3 accurately ripped (confidence 10) 11FBD5E
Track 4 accurately ripped (confidence 9) [FAC90F92]
Track 5 accurately ripped (confidence 10) [4B70900F]
Track 6 accurately ripped (confidence 8) [CEE2C0EB]

All tracks accurately ripped

End of status report

==== Log checksum 23BC0862A8051E7B14D74E370804B769176191B83F3BA6D844321A039688C5FC ====

foobar2000 1.2.6 / Dynamic Range Meter 1.1.1
log date: 2015-08-06 15:53:21

Analyzed: Wishbone Ash / Wishbone Ash

DR Peak RMS Duration Track

DR12 -0.77 dB -16.44 dB 3:45 01-Blind Eye
DR14 -0.23 dB -15.92 dB 6:13 02-Lady Whiskey
DR13 -1.48 dB -16.52 dB 6:57 03-Errors Of My Way
DR13 0.00 dB -16.18 dB 3:24 04-Queen Of Torture
DR14 -0.37 dB -18.65 dB 11:37 05-Handy
DR13 -0.51 dB -15.94 dB 10:26 06-Phoenix

Number of tracks: 6
Official DR value: DR13

Samplerate: 44100 Hz
Channels: 2
Bits per sample: 16
Bitrate: 821 kbps
Codec: FLAC

[CUETools log; Date: 06.08.2015 15:53:14; Version: 2.1.5]
[CTDB TOCID: b0eL6jJhPRcALt8Smf5IfWgX8OM-] found.
Track | CTDB Status
1 | (10/10) Accurately ripped
2 | (10/10) Accurately ripped
3 | (10/10) Accurately ripped
4 | (10/10) Accurately ripped
5 | (10/10) Accurately ripped
6 | (10/10) Accurately ripped
[AccurateRip ID: 00089a0b-002fb6c9-3509ed06] found.
Track [ CRC | V2 ] Status
01 [15ef930e|081ebe0a] (12+11/23) Accurately ripped
02 [acece42a|1d093471] (12+11/23) Accurately ripped
03 11fbd5e|ce7987b6 (12+11/23) Accurately ripped
04 [fac90f92|56d9400f] (12+10/22) Accurately ripped
05 [4b70900f|93ae4284] (12+11/23) Accurately ripped
06 [cee2c0eb|e5bdf1ff] (12+09/21) Accurately ripped

Track Peak [ CRC32 ] [W/O NULL] [ LOG ]
-- 100,0 [43B0039A] [5095D0D8] CRC32
01 91,4 [84C05CD8] [035B1B6A]
02 97,3 [9DF83CCB] [DD62F6AB]
03 84,3 [C5045786] [A205932E]
04 100,0 [0B251596] [71F46EDC]
05 95,7 [76AEF1DC] [90B8CC63]
06 94,3 98F0A1C [0D783981]

http://i69.fastpic.ru/big/2015/0808/8c/593a3bf86eb3255e88901c4042d8858c.jpg


DOWNLOAD LINKS:
Buy Premium To Support Me & Get Resumable Support & Max Speed


Links are Interchangeable - No Password - Single Extraction

Wishbone Ash - Wishbone Ash (1970/1992) Fast Download



 
 
 
Dear visitor, you went to the site as an unregistered user. We encourage you to register or enter the site under your name.
 
   
 
 (Votes #: 0)