2013Zone For Latest Downloads

 
     
 
Legal Downloads » Music » VA - Lady Power (1999) 2CD
Menu
Home Applications
Games Movies
Music TV Shows
Torrents Graphics

Sitemap

RSS
 
Advanced Search
Last News
Site Info
Top Contributors:
  1    supper88 32766
  2    admin 32671
  3    Whisky 10080
  4    Shark_ 8911
  5    creativelivenew 8706
  6    whathesupa 2799
  7    candymypost 840
  8    hvnteam 629
  9    vuong87 3


Articles:
  This Hour: 0
  Today: 0
  This Month: 78
  All Time: 515636


Torrents:
  Today: 0
  Yesterday: 0
  All Time: 156702


Membership:
  Registered Today :0
  This Hour:0
  This Month:0
  Total:14
  Banned:1

{online}
{inform_torrent}
Friend:
We Recomend
Trend
Trend
Ad1

Search In Site

Music : VA - Lady Power (1999) 2CD
 
http://i70.fastpic.ru/big/2015/0811/4f/753442dfc41d44b598e46d27970d814f.jpg

VA - Lady Power (1999) 2CD
EAC | FLAC | Tracks (Cue&Log) ~ 880 Mb (incl 5%) | Mp3 (CBR320) ~ 373 Mb (incl 5%) | Scans included
Genre: Pop, Country, R&B, Vocal Jazz, Pop Rock | Label: Radio Star | # 55011 | Time: 02:32:04

"2 CD, 50 greatest hits. Petula Clark, Joan Baez, Brenda Lee, Aretha Franklin, Dionne Warwick, Linda Ronstadt, Nina Simone, Conny Francis, Carole King, Cher, Patsy Cline, Dolly Parton, Gloria Gaynor, Shirley Bassey, Diana Ross & The Supremes, Barbara Streisand, Sarah Vaughn, Olivia Newton-John, Judy Garland, Billy Holiday, Mahalia Jackson and more, and more..."

http://i72.fastpic.ru/big/2015/0811/d0/65d7bafd7f1cb845d37211aa1afc19d0.jpg

Tracklist:

CD1:

01. Leslie Gore - It's My Party (02:15)
02. Petula Clark - Down Town (03:05)
03. Brenda Lee - I'm Sorry (02:41)
04. Joan Baez - Don't Think Twice It's All Right (03:03)
05. Little Eva - The Locomotion (02:24)
06. Aretha Franklin - Eleonor Rigby (02:36)
07. Lynn Anderson - Rose Garden (03:00)
08. Dionne Warwick - Heartbreaker (04:17)
09. Linda Ronstadt - Blue Bayou (03:55)
10. Nina Simone - Angel Of The Morning (03:32)
11. Dinah Washington - What A Difference A Day Makes (02:32)
12. Conny Francis - Everybody's Somebody's Fool (02:38)
13. Carol Douglas - Doctor's Order (02:46)
14. Vikki Carr - For One In My Life (02:50)
15. P.P. Arnold - The First Cut Is The Deepest (03:04)
16. Carole King - It's To Late (03:54)
17. Cher - Bang, Bang (My Baby Shot Me Down) (02:47)
18. Patsy Cline - Walking After Midnight (02:51)
19. The Shirelles - Will You Still Love Me Tomorrow (02:38)
20. The Crystals - The He Kissed Me (02:33)
21. Supremes - Stop In The Name Of Love (04:17)
22. Dolly Parton - Makin' Believe (02:37)
23. Gloria Gaynor - I Will Survive (04:22)
24. Shirley Bassey - Goldfinger (02:48)
25. Anita Ward - Ring My Bell (04:07)

CD2:

01. Wanda Jackson - Let's Have A Party (02:10)
02. Barbara Streisand - Happy Days Are Here Again (03:07)
03. Doris Day - Que Sera Sera (Whatever Will Be) (02:04)
04. Mary Wells - My Guy (02:32)
05. Mary Hopkin - Those Were The Days (03:36)
06. Shelly Fabares - Johnny Angel (02:09)
07. Diana Ross & The Supremes - Baby Love (02:38)
08. Connie Stevens - Sixteen Reasons (01:57)
09. Sarah Vaughn - Whatever Lola Wants (02:34)
10. Marilyn Monroe - Diamond Are A Girls Best Friend (03:31)
11. Lindsay De Paul - Sugar Me (03:34)
12. Tammy Wynette - Stand By Your Man (02:39)
13. Olivia Newton-John - I Honestly Love You (03:38)
14. Debby Reynolds - Tammy (03:05)
15. Judy Garland - Over The Rainbow (02:47)
16. Donna Fargo - The Happies Girl In The USA (02:33)
17. Melanie - Ruby Tuesday (04:35)
18. The Shangri-Las - Leader Of The Pack (02:49)
19. Lulu - To Sire With Love (02:45)
20. Loretta Lynn - Love Is The Foundation (02:31)
21. Lavern Baker - Tweedle Dee (03:03)
22. Billy Holiday - Georgia On My Mind (03:18)
23. Pointer Sisters - He's To Shy (03:33)
24. Tanya Tucker - The Night They Drove Ole Dixie Down (03:46)
25. Mahalia Jackson - Go Tell It On The Mountain (03:13)


Exact Audio Copy V1.0 beta 3 from 29. August 2011

Отчёт EAC об извлечении, выполненном 16. июля 2015, 20:56

VA / Lady Power - CD1

Дисковод: ASUS DRW-1814BLT Adapter: 4 ID: 0

Режим чтения : Достоверность
?спользование точного потока : Да
Отключение кэ?а аудио : Да
?спользование указателей C2 : Нет

Коррекция смещения при чтении : 6
Способность читать области Lead-in и Lead-out : Нет
Заполнение пропущенных сэмплов ти?иной : Да
Удаление блоков с ти?иной в начале и конце : Нет
При вычислениях CRC использовались нулевые сэмплы : Да
?нтерфейс : Встроенный Win32-интерфейс для Win NT/2000
Обработка зазоров
: Добавлено к предыдущему треку

Выходной формат : Пользовательский кодировщик
Выбранный битрейт : 128 kBit/s
Качество : Высокий
Добавление ID3-тега : Нет
Утилита сжатия : C:\Program Files\Exact Audio Copy\Flac\flac.exe
Дополнительные параметры : -V -8 -T "Genre=%genre%" -T "Artist=%artist%" -T "Title=%title%" -T "Album=%albumtitle%" -T "Date=%year%" -T "Tracknumber=%tracknr%" -T "Comment=EAC1.0b2 FLAC -8" %source%

TOC извлечённого CD Трек | Старт | Длительность | Начальный сектор | Конечный сектор

1 | 0:00.00 | 2:15.23 | 0 | 10147
2 | 2:15.23 | 3:05.09 | 10148 | 24031
3 | 5:20.32 | 2:41.29 | 24032 | 36135
4 | 8:01.61 | 3:03.60 | 36136 | 49920
5 | 11:05.46 | 2:24.36 | 49921 | 60756
6 | 13:30.07 | 2:36.56 | 60757 | 72512
7 | 16:06.63 | 3:00.61 | 72513 | 86073
8 | 19:07.49 | 4:17.31 | 86074 | 105379
9 | 23:25.05 | 3:55.72 | 105380 | 123076
10 | 27:21.02 | 3:32.59 | 123077 | 139035
11 | 30:53.61 | 2:32.07 | 139036 | 150442
12 | 33:25.68 | 2:38.73 | 150443 | 162365
13 | 36:04.66 | 2:46.02 | 162366 | 174817
14 | 38:50.68 | 2:50.04 | 174818 | 187571
15 | 41:40.72 | 3:04.41 | 187572 | 201412
16 | 44:45.38 | 3:54.48 | 201413 | 219010
17 | 48:40.11 | 2:47.54 | 219011 | 231589
18 | 51:27.65 | 2:51.10 | 231590 | 244424
19 | 54:19.00 | 2:38.28 | 244425 | 256302
20 | 56:57.28 | 2:33.35 | 256303 | 267812
21 | 59:30.63 | 4:17.64 | 267813 | 287151
22 | 63:48.52 | 2:37.54 | 287152 | 298980
23 | 66:26.31 | 4:22.35 | 298981 | 318665
24 | 70:48.66 | 2:48.34 | 318666 | 331299
25 | 73:37.25 | 4:07.06 | 331300 | 349830

Трек 1 ?мя файла R:\Раздача 49\VA - Lady Power - 1999 (2CD)\CD1\01 It's my party.wav Длина предзазора 0:00:02.00 Пиковый уровень 100.0 %
Скорость извлечения 4.2 X
Качество трека 100.0 %
CRC теста 01CB8E0E
CRC копии 01CB8E0E
Точное извлечение (достоверность 2) [58E69D15] (AR v2)
Копирование... OK

Трек 2 ?мя файла R:\Раздача 49\VA - Lady Power - 1999 (2CD)\CD1\02 Down town.wav Длина предзазора 0:00:02.00 Пиковый уровень 97.6 %
Скорость извлечения 4.8 X
Качество трека 100.0 %
CRC теста 22A35F28
CRC копии 22A35F28
Точное извлечение (достоверность 2) [5C579478] (AR v2)
Копирование... OK

Трек 3 ?мя файла R:\Раздача 49\VA - Lady Power - 1999 (2CD)\CD1\03 I'm sorry.wav Длина предзазора 0:00:02.00 Пиковый уровень 97.4 %
Скорость извлечения 5.0 X
Качество трека 100.0 %
CRC теста 74AD9459
CRC копии 74AD9459
Точное извлечение (достоверность 2) [6D91FF97] (AR v2)
Копирование... OK

Трек 4 ?мя файла R:\Раздача 49\VA - Lady Power - 1999 (2CD)\CD1\04 Don't think twice it's all right.wav Длина предзазора 0:00:02.00 Пиковый уровень 100.0 %
Скорость извлечения 5.4 X
Качество трека 100.0 %
CRC теста 823DBAF6
CRC копии 823DBAF6
Точное извлечение (достоверность 2) [A11B636A] (AR v2)
Копирование... OK

Трек 5 ?мя файла R:\Раздача 49\VA - Lady Power - 1999 (2CD)\CD1\05 The locomotion.wav Длина предзазора 0:00:02.00 Пиковый уровень 100.0 %
Скорость извлечения 5.4 X
Качество трека 100.0 %
CRC теста 69351376
CRC копии 69351376
Точное извлечение (достоверность 2) [EB4350CE] (AR v2)
Копирование... OK

Трек 6 ?мя файла R:\Раздача 49\VA - Lady Power - 1999 (2CD)\CD1\06 Eleonor Rigby.wav Длина предзазора 0:00:02.00 Пиковый уровень 97.2 %
Скорость извлечения 5.7 X
Качество трека 100.0 %
CRC теста 02ED8ED9
CRC копии 02ED8ED9
Точное извлечение (достоверность 2) [2CC77943] (AR v2)
Копирование... OK

Трек 7 ?мя файла R:\Раздача 49\VA - Lady Power - 1999 (2CD)\CD1\07 Rose garden.wav Длина предзазора 0:00:02.00 Пиковый уровень 100.0 %
Скорость извлечения 6.0 X
Качество трека 100.0 %
CRC теста CB3E1423
CRC копии CB3E1423
Точное извлечение (достоверность 2) [3848EF1B] (AR v2)
Копирование... OK

Трек 8 ?мя файла R:\Раздача 49\VA - Lady Power - 1999 (2CD)\CD1\08 Heartbreaker.wav Длина предзазора 0:00:02.00 Пиковый уровень 96.9 %
Скорость извлечения 6.7 X
Качество трека 100.0 %
CRC теста EF69C556
CRC копии EF69C556
Точное извлечение (достоверность 2) [D417931A] (AR v2)
Копирование... OK

Трек 9 ?мя файла R:\Раздача 49\VA - Lady Power - 1999 (2CD)\CD1\09 Blue bayou.wav Длина предзазора 0:00:02.00 Пиковый уровень 82.1 %
Скорость извлечения 6.9 X
Качество трека 100.0 %
CRC теста 982DFB51
CRC копии 982DFB51
Точное извлечение (достоверность 2) [7E0BFA19] (AR v2)
Копирование... OK

Трек 10 ?мя файла R:\Раздача 49\VA - Lady Power - 1999 (2CD)\CD1\10 Angel of the morning.wav Длина предзазора 0:00:02.00 Пиковый уровень 97.9 %
Скорость извлечения 5.0 X
Качество трека 99.9 %
CRC теста 159F2AF2
CRC копии 159F2AF2
Точное извлечение (достоверность 2) [77256F91] (AR v2)
Копирование... OK

Трек 11 ?мя файла R:\Раздача 49\VA - Lady Power - 1999 (2CD)\CD1\11 What a difference a day makes.wav Длина предзазора 0:00:02.00 Пиковый уровень 91.3 %
Скорость извлечения 6.7 X
Качество трека 100.0 %
CRC теста 32A4561A
CRC копии 32A4561A
Точное извлечение (достоверность 2) [12EFE23E] (AR v2)
Копирование... OK

Трек 12 ?мя файла R:\Раздача 49\VA - Lady Power - 1999 (2CD)\CD1\12 Everybody's somebody's fool.wav Длина предзазора 0:00:02.00 Пиковый уровень 71.7 %
Скорость извлечения 7.0 X
Качество трека 100.0 %
CRC теста F06C9023
CRC копии F06C9023
Точное извлечение (достоверность 2) [6ECE5A47] (AR v2)
Копирование... OK

Трек 13 ?мя файла R:\Раздача 49\VA - Lady Power - 1999 (2CD)\CD1\13 Doctor's order.wav Длина предзазора 0:00:02.00 Пиковый уровень 97.3 %
Скорость извлечения 7.3 X
Качество трека 100.0 %
CRC теста BA9A3E9E
CRC копии BA9A3E9E
Точное извлечение (достоверность 2) CB2F15D (AR v2)
Копирование... OK

Трек 14 ?мя файла R:\Раздача 49\VA - Lady Power - 1999 (2CD)\CD1\14 For one in my life.wav Длина предзазора 0:00:02.00 Пиковый уровень 98.3 %
Скорость извлечения 7.5 X
Качество трека 100.0 %
CRC теста 06848A1B
CRC копии 06848A1B
Точное извлечение (достоверность 2) [EAD9F450] (AR v2)
Копирование... OK

Трек 15 ?мя файла R:\Раздача 49\VA - Lady Power - 1999 (2CD)\CD1\15 The first cut is the deepest.wav Длина предзазора 0:00:02.00 Пиковый уровень 98.0 %
Скорость извлечения 7.7 X
Качество трека 100.0 %
CRC теста EF771483
CRC копии EF771483
Точное извлечение (достоверность 2) [613542D4] (AR v2)
Копирование... OK

Трек 16 ?мя файла R:\Раздача 49\VA - Lady Power - 1999 (2CD)\CD1\16 It's to late.wav Длина предзазора 0:00:02.00 Пиковый уровень 62.5 %
Скорость извлечения 8.2 X
Качество трека 100.0 %
CRC теста ABA93021
CRC копии ABA93021
Точное извлечение (достоверность 2) [CAD665CD] (AR v2)
Копирование... OK

Трек 17 ?мя файла R:\Раздача 49\VA - Lady Power - 1999 (2CD)\CD1\17 Bang, bang (my baby shot me down).wav Длина предзазора 0:00:02.00 Пиковый уровень 80.0 %
Скорость извлечения 8.0 X
Качество трека 100.0 %
CRC теста 5BB7D9EE
CRC копии 5BB7D9EE
Точное извлечение (достоверность 2) [8914D9FD] (AR v2)
Копирование... OK

Трек 18 ?мя файла R:\Раздача 49\VA - Lady Power - 1999 (2CD)\CD1\18 Walking after midnight.wav Длина предзазора 0:00:02.00 Пиковый уровень 97.5 %
Скорость извлечения 8.2 X
Качество трека 100.0 %
CRC теста 076C6E67
CRC копии 076C6E67
Точное извлечение (достоверность 2) [902BCEEE] (AR v2)
Копирование... OK

Трек 19 ?мя файла R:\Раздача 49\VA - Lady Power - 1999 (2CD)\CD1\19 Will you still love me tomorrow.wav Длина предзазора 0:00:02.00 Пиковый уровень 98.0 %
Скорость извлечения 5.6 X
Качество трека 99.9 %
CRC теста E2EC25C9
CRC копии E2EC25C9
Точное извлечение (достоверность 2) [1082A703] (AR v2)
Копирование... OK

Трек 20 ?мя файла R:\Раздача 49\VA - Lady Power - 1999 (2CD)\CD1\20 The he kissed me.wav Длина предзазора 0:00:02.00 Пиковый уровень 98.0 %
Скорость извлечения 8.2 X
Качество трека 100.0 %
CRC теста 68101337
CRC копии 68101337
Точное извлечение (достоверность 2) [FD5B00ED] (AR v2)
Копирование... OK

Трек 21 ?мя файла R:\Раздача 49\VA - Lady Power - 1999 (2CD)\CD1\21 Stop in the name of love.wav Длина предзазора 0:00:02.00 Пиковый уровень 89.8 %
Скорость извлечения 9.2 X
Качество трека 100.0 %
CRC теста 56F1B341
CRC копии 56F1B341
Точное извлечение (достоверность 2) [C11B3531] (AR v2)
Копирование... OK

Трек 22 ?мя файла R:\Раздача 49\VA - Lady Power - 1999 (2CD)\CD1\22 Makin' believe.wav Длина предзазора 0:00:02.00 Пиковый уровень 98.8 %
Скорость извлечения 5.9 X
Качество трека 99.9 %
CRC теста 46F96FDA
CRC копии 46F96FDA
Точное извлечение (достоверность 2) [078CC508] (AR v2)
Копирование... OK

Трек 23 ?мя файла R:\Раздача 49\VA - Lady Power - 1999 (2CD)\CD1\23 I will survive.wav Длина предзазора 0:00:02.00 Пиковый уровень 88.8 %
Скорость извлечения 5.1 X
Качество трека 99.9 %
CRC теста 9ED64A9C
CRC копии 9ED64A9C
Точность не определена (достоверность 2) [EA82E880], AccurateRip вернул [7E26C702] (AR v2)
Копирование... OK

Трек 24 ?мя файла R:\Раздача 49\VA - Lady Power - 1999 (2CD)\CD1\24 Goldfinger.wav Длина предзазора 0:00:02.00 Пиковый уровень 73.5 %
Скорость извлечения 9.1 X
Качество трека 100.0 %
CRC теста A40F10ED
CRC копии A40F10ED
Точное извлечение (достоверность 2) [074858FA] (AR v2)
Копирование... OK

Трек 25 ?мя файла R:\Раздача 49\VA - Lady Power - 1999 (2CD)\CD1\25 Ring my bell.wav Длина предзазора 0:00:02.00 Пиковый уровень 98.8 %
Скорость извлечения 9.8 X
Качество трека 100.0 %
CRC теста E1BC4C34
CRC копии E1BC4C34
Точное извлечение (достоверность 2) [945BA3AB] (AR v2)
Копирование... OK

24 трек(и) скопированы точно
1 трек(и) не удалось проверить на точность

Некоторые треки не про?ли проверку на точность

О?ибок не произо?ло

Конец отчёта

==== Контрольная сумма отчёта 183B9AEE1E9D25C572F6522A92B7445064414C86400781B414669FF342F6E4C3 ====

foobar2000 1.2 / Dynamic Range Meter 1.1.1
log date: 2015-08-06 23:59:13

Analyzed: Anita Ward / Lady Power - CD1 (1) Aretha Franklin / Lady Power - CD1 (2) Brenda Lee / Lady Power - CD1 (3) Carol Douglas / Lady Power - CD1 (4) Carole King / Lady Power - CD1 (5) Cher / Lady Power - CD1 (6) Conny Francis / Lady Power - CD1 (7) Dinah Washington / Lady Power - CD1 (8) Dionne Warwick / Lady Power - CD1 (9) Dolly Parton / Lady Power - CD1 (10) Gloria Gaynor / Lady Power - CD1 (11) Joan Baez / Lady Power - CD1 (12) Leslie Gore / Lady Power - CD1 (13) Linda Ronstadt / Lady Power - CD1 (14) Little Eva / Lady Power - CD1 (15) Lynn Anderson / Lady Power - CD1 (16) Nina Simone / Lady Power - CD1 (17) P.P. Arnold / Lady Power - CD1 (18) Patsy Cline / Lady Power - CD1 (19) Petula Clark / Lady Power - CD1 (20) Shirley Bassey / Lady Power - CD1 (21) Supremes / Lady Power - CD1 (22) The Crystals / Lady Power - CD1 (23) The Shirelles / Lady Power - CD1 (24) Vikki Carr / Lady Power - CD1 (25)

DR Peak RMS Duration Track

DR14 -0.10 dB -15.20 dB 4:07 25-Ring my bell
DR11 -0.24 dB -13.01 dB 2:37 06-Eleonor Rigby
DR12 -0.22 dB -15.31 dB 2:41 03-I'm sorry
DR10 -0.23 dB -11.92 dB 2:46 13-Doctor's order
DR13 -4.07 dB -20.47 dB 3:55 16-It's to late
DR14 -1.93 dB -20.77 dB 2:48 17-Bang, bang (my baby shot me down)
DR11 -2.89 dB -17.08 dB 2:39 12-Everybody's somebody's fool
DR14 -0.79 dB -17.41 dB 2:32 11-What a difference a day makes
DR13 -0.27 dB -16.11 dB 4:17 08-Heartbreaker
DR9 -0.10 dB -11.20 dB 2:38 22-Makin' believe
DR14 -1.03 dB -16.36 dB 4:22 23-I will survive
DR9 0.00 dB -12.54 dB 3:04 04-Don't think twice it's all right
DR12 0.00 dB -13.14 dB 2:15 01-It's my party
DR15 -1.71 dB -20.58 dB 3:56 09-Blue bayou
DR10 0.00 dB -11.24 dB 2:24 05-The locomotion
DR15 0.00 dB -17.09 dB 3:01 07-Rose garden
DR12 -0.18 dB -15.93 dB 3:33 10-Angel of the morning
DR11 -0.17 dB -13.84 dB 3:05 15-The first cut is the deepest
DR9 -0.21 dB -12.05 dB 2:51 18-Walking after midnight
DR9 -0.21 dB -12.66 dB 3:05 02-Down town
DR11 -2.67 dB -17.47 dB 2:48 24-Goldfinger
DR10 -0.93 dB -12.26 dB 4:18 21-Stop in the name of love
DR8 -0.17 dB -8.99 dB 2:33 20-The he kissed me
DR8 -0.17 dB -9.26 dB 2:38 19-Will you still love me tomorrow
DR11 -0.14 dB -15.38 dB 2:50 14-For one in my life

Number of tracks: 25
Official DR value: DR11

Samplerate: 44100 Hz
Channels: 2
Bits per sample: 16
Bitrate: 692 kbps
Codec: FLAC

Exact Audio Copy V1.0 beta 3 from 29. August 2011

Отчёт EAC об извлечении, выполненном 16. июля 2015, 22:02

VA / Lady Power - CD2

Дисковод: ASUS DRW-1814BLT Adapter: 4 ID: 0

Режим чтения : Достоверность
?спользование точного потока : Да
Отключение кэ?а аудио : Да
?спользование указателей C2 : Нет

Коррекция смещения при чтении : 6
Способность читать области Lead-in и Lead-out : Нет
Заполнение пропущенных сэмплов ти?иной : Да
Удаление блоков с ти?иной в начале и конце : Нет
При вычислениях CRC использовались нулевые сэмплы : Да
?нтерфейс : Встроенный Win32-интерфейс для Win NT/2000
Обработка зазоров
: Добавлено к предыдущему треку

Выходной формат : Пользовательский кодировщик
Выбранный битрейт : 128 kBit/s
Качество : Высокий
Добавление ID3-тега : Нет
Утилита сжатия : C:\Program Files\Exact Audio Copy\Flac\flac.exe
Дополнительные параметры : -V -8 -T "Genre=%genre%" -T "Artist=%artist%" -T "Title=%title%" -T "Album=%albumtitle%" -T "Date=%year%" -T "Tracknumber=%tracknr%" -T "Comment=EAC1.0b2 FLAC -8" %source%

TOC извлечённого CD Трек | Старт | Длительность | Начальный сектор | Конечный сектор

1 | 0:00.00 | 2:10.66 | 0 | 9815
2 | 2:10.66 | 3:07.07 | 9816 | 23847
3 | 5:17.73 | 2:04.07 | 23848 | 33154
4 | 7:22.05 | 2:32.32 | 33155 | 44586
5 | 9:54.37 | 3:36.49 | 44587 | 60835
6 | 13:31.11 | 2:09.56 | 60836 | 70566
7 | 15:40.67 | 2:38.73 | 70567 | 82489
8 | 18:19.65 | 1:57.02 | 82490 | 91266
9 | 20:16.67 | 2:34.70 | 91267 | 102886
10 | 22:51.62 | 3:31.08 | 102887 | 118719
11 | 26:22.70 | 3:34.71 | 118720 | 134840
12 | 29:57.66 | 2:39.29 | 134841 | 146794
13 | 32:37.20 | 3:38.35 | 146795 | 163179
14 | 36:15.55 | 3:05.70 | 163180 | 177124
15 | 39:21.50 | 2:47.44 | 177125 | 189693
16 | 42:09.19 | 2:33.24 | 189694 | 201192
17 | 44:42.43 | 4:35.07 | 201193 | 221824
18 | 49:17.50 | 2:49.10 | 221825 | 234509
19 | 52:06.60 | 2:45.49 | 234510 | 246933
20 | 54:52.34 | 2:31.39 | 246934 | 258297
21 | 57:23.73 | 3:03.49 | 258298 | 272071
22 | 60:27.47 | 3:18.40 | 272072 | 286961
23 | 63:46.12 | 3:33.45 | 286962 | 302981
24 | 67:19.57 | 3:46.72 | 302982 | 320003
25 | 71:06.54 | 3:13.42 | 320004 | 334520

Трек 1 ?мя файла R:\Раздача 49\VA - Lady Power - 1999 (2CD)\CD2\01 Let's have a party.wav Длина предзазора 0:00:02.00 Пиковый уровень 97.2 %
Скорость извлечения 5.0 X
Качество трека 100.0 %
CRC теста 746162A4
CRC копии 746162A4
Точное извлечение (достоверность 2) [9044A278] (AR v2)
Копирование... OK

Трек 2 ?мя файла R:\Раздача 49\VA - Lady Power - 1999 (2CD)\CD2\02 Happy days are here again.wav Длина предзазора 0:00:02.00 Пиковый уровень 67.7 %
Скорость извлечения 5.7 X
Качество трека 100.0 %
CRC теста 31449859
CRC копии 31449859
Точное извлечение (достоверность 2) [5EBB3363] (AR v2)
Копирование... OK

Трек 3 ?мя файла R:\Раздача 49\VA - Lady Power - 1999 (2CD)\CD2\03 Que sera sera (whatever will be).wav Длина предзазора 0:00:02.00 Пиковый уровень 88.0 %
Скорость извлечения 5.5 X
Качество трека 100.0 %
CRC теста E588D01D
CRC копии E588D01D
Точное извлечение (достоверность 2) B834B01 (AR v2)
Копирование... OK

Трек 4 ?мя файла R:\Раздача 49\VA - Lady Power - 1999 (2CD)\CD2\04 My guy.wav Длина предзазора 0:00:02.00 Пиковый уровень 100.0 %
Скорость извлечения 6.0 X
Качество трека 100.0 %
CRC теста 09FF9351
CRC копии 09FF9351
Точное извлечение (достоверность 2) [3200F433] (AR v2)
Копирование... OK

Трек 5 ?мя файла R:\Раздача 49\VA - Lady Power - 1999 (2CD)\CD2\05 Those were the days.wav Длина предзазора 0:00:02.00 Пиковый уровень 100.0 %
Скорость извлечения 6.8 X
Качество трека 100.0 %
CRC теста 571D8347
CRC копии 571D8347
Точное извлечение (достоверность 2) [2079509E] (AR v2)
Копирование... OK

Трек 6 ?мя файла R:\Раздача 49\VA - Lady Power - 1999 (2CD)\CD2\06 Johnny Angel.wav Длина предзазора 0:00:02.00 Пиковый уровень 81.5 %
Скорость извлечения 6.4 X
Качество трека 100.0 %
CRC теста 2FB5EF33
CRC копии 2FB5EF33
Точное извлечение (достоверность 2) [78F41D2D] (AR v2)
Копирование... OK

Трек 7 ?мя файла R:\Раздача 49\VA - Lady Power - 1999 (2CD)\CD2\07 Baby love.wav Длина предзазора 0:00:02.00 Пиковый уровень 90.2 %
Скорость извлечения 6.9 X
Качество трека 100.0 %
CRC теста 4117F1AC
CRC копии 4117F1AC
Точное извлечение (достоверность 2) [31E01690] (AR v2)
Копирование... OK

Трек 8 ?мя файла R:\Раздача 49\VA - Lady Power - 1999 (2CD)\CD2\08 Sixteen reasons.wav Длина предзазора 0:00:02.00 Пиковый уровень 55.6 %
Скорость извлечения 6.6 X
Качество трека 100.0 %
CRC теста E0F84D81
CRC копии E0F84D81
Точное извлечение (достоверность 2) [CF89CCB7] (AR v2)
Копирование... OK

Трек 9 ?мя файла R:\Раздача 49\VA - Lady Power - 1999 (2CD)\CD2\09 Whatever Lola wants.wav Длина предзазора 0:00:02.00 Пиковый уровень 98.0 %
Скорость извлечения 7.2 X
Качество трека 100.0 %
CRC теста 354684B2
CRC копии 354684B2
Точное извлечение (достоверность 2) [2C436326] (AR v2)
Копирование... OK

Трек 10 ?мя файла R:\Раздача 49\VA - Lady Power - 1999 (2CD)\CD2\10 Diamond are a girls best friend.wav Длина предзазора 0:00:02.00 Пиковый уровень 96.9 %
Скорость извлечения 8.0 X
Качество трека 100.0 %
CRC теста 5E92BFC0
CRC копии 5E92BFC0
Точное извлечение (достоверность 2) [ED4E8C35] (AR v2)
Копирование... OK

Трек 11 ?мя файла R:\Раздача 49\VA - Lady Power - 1999 (2CD)\CD2\11 Sugar me.wav Длина предзазора 0:00:02.00 Пиковый уровень 98.0 %
Скорость извлечения 8.2 X
Качество трека 100.0 %
CRC теста 4ACB3FA2
CRC копии 4ACB3FA2
Точное извлечение (достоверность 2) [EEB73811] (AR v2)
Копирование... OK

Трек 12 ?мя файла R:\Раздача 49\VA - Lady Power - 1999 (2CD)\CD2\12 Stand by your man.wav Длина предзазора 0:00:02.00 Пиковый уровень 90.3 %
Скорость извлечения 8.1 X
Качество трека 100.0 %
CRC теста 29EE6C39
CRC копии 29EE6C39
Точное извлечение (достоверность 2) [62C77B02] (AR v2)
Копирование... OK

Трек 13 ?мя файла R:\Раздача 49\VA - Lady Power - 1999 (2CD)\CD2\13 I honestly love you.wav Длина предзазора 0:00:02.00 Пиковый уровень 87.0 %
Скорость извлечения 6.5 X
Качество трека 99.9 %
CRC теста 49A71B4D
CRC копии 49A71B4D
Точное извлечение (достоверность 2) [18548900] (AR v2)
Копирование... OK

Трек 14 ?мя файла R:\Раздача 49\VA - Lady Power - 1999 (2CD)\CD2\14 Tammy.wav Длина предзазора 0:00:02.00 Пиковый уровень 98.0 %
Скорость извлечения 6.4 X
Качество трека 99.9 %
CRC теста FAE30B99
CRC копии FAE30B99
Точное извлечение (достоверность 2) [614375B5] (AR v2)
Копирование... OK

Трек 15 ?мя файла R:\Раздача 49\VA - Lady Power - 1999 (2CD)\CD2\15 Over the rainbow.wav Длина предзазора 0:00:02.00 Пиковый уровень 94.9 %
Скорость извлечения 8.7 X
Качество трека 100.0 %
CRC теста C3E8FBA2
CRC копии C3E8FBA2
Точное извлечение (достоверность 2) [28E8317E] (AR v2)
Копирование... OK

Трек 16 ?мя файла R:\Раздача 49\VA - Lady Power - 1999 (2CD)\CD2\16 The happies girl in the USA.wav Длина предзазора 0:00:02.00 Пиковый уровень 92.0 %
Скорость извлечения 8.7 X
Качество трека 100.0 %
CRC теста 9F335036
CRC копии 9F335036
Точное извлечение (достоверность 2) [4F1D87CE] (AR v2)
Копирование... OK

Трек 17 ?мя файла R:\Раздача 49\VA - Lady Power - 1999 (2CD)\CD2\17 Ruby Tuesday.wav Длина предзазора 0:00:02.00 Пиковый уровень 85.6 %
Скорость извлечения 9.9 X
Качество трека 100.0 %
CRC теста AC4C331A
CRC копии AC4C331A
Точное извлечение (достоверность 2) [C72F2264] (AR v2)
Копирование... OK

Трек 18 ?мя файла R:\Раздача 49\VA - Lady Power - 1999 (2CD)\CD2\18 Leader of the pack.wav Длина предзазора 0:00:02.00 Пиковый уровень 88.7 %
Скорость извлечения 9.4 X
Качество трека 100.0 %
CRC теста 05070B6A
CRC копии 05070B6A
Точное извлечение (достоверность 2) [0C6E5BB5] (AR v2)
Копирование... OK

Трек 19 ?мя файла R:\Раздача 49\VA - Lady Power - 1999 (2CD)\CD2\19 To sire with love.wav Длина предзазора 0:00:02.00 Пиковый уровень 98.0 %
Скорость извлечения 6.9 X
Качество трека 99.9 %
CRC теста 8FDBC794
CRC копии 8FDBC794
Точное извлечение (достоверность 2) [F4FB4030] (AR v2)
Копирование... OK

Трек 20 ?мя файла R:\Раздача 49\VA - Lady Power - 1999 (2CD)\CD2\20 Love is the foundation.wav Длина предзазора 0:00:02.00 Пиковый уровень 70.1 %
Скорость извлечения 9.7 X
Качество трека 100.0 %
CRC теста 0F94D092
CRC копии 0F94D092
Точное извлечение (достоверность 2) [3EC487B0] (AR v2)
Копирование... OK

Трек 21 ?мя файла R:\Раздача 49\VA - Lady Power - 1999 (2CD)\CD2\21 Tweedle dee.wav Длина предзазора 0:00:02.00 Пиковый уровень 97.1 %
Скорость извлечения 10.0 X
Качество трека 100.0 %
CRC теста 19E0DF32
CRC копии 19E0DF32
Точное извлечение (достоверность 2) [D7D31DA4] (AR v2)
Копирование... OK

Трек 22 ?мя файла R:\Раздача 49\VA - Lady Power - 1999 (2CD)\CD2\22 Georgia on my mind.wav Длина предзазора 0:00:02.00 Пиковый уровень 100.0 %
Скорость извлечения 7.6 X
Качество трека 99.9 %
CRC теста FB13F9D9
CRC копии FB13F9D9
Точное извлечение (достоверность 2) [4CCFE152] (AR v2)
Копирование... OK

Трек 23 ?мя файла R:\Раздача 49\VA - Lady Power - 1999 (2CD)\CD2\23 He's to shy.wav Длина предзазора 0:00:02.00 Пиковый уровень 98.8 %
Скорость извлечения 10.7 X
Качество трека 100.0 %
CRC теста 24EE88EA
CRC копии 24EE88EA
Точное извлечение (достоверность 2) [F4ECAF8C] (AR v2)
Копирование... OK

Трек 24 ?мя файла R:\Раздача 49\VA - Lady Power - 1999 (2CD)\CD2\24 The night they drove ole dixie down.wav Длина предзазора 0:00:02.00 Пиковый уровень 53.9 %
Скорость извлечения 11.0 X
Качество трека 100.0 %
CRC теста 3FA3790F
CRC копии 3FA3790F
Точное извлечение (достоверность 2) [ADE8F09B] (AR v2)
Копирование... OK

Трек 25 ?мя файла R:\Раздача 49\VA - Lady Power - 1999 (2CD)\CD2\25 Go tell it on the mountain.wav Длина предзазора 0:00:02.00 Пиковый уровень 99.9 %
Скорость извлечения 7.9 X
Качество трека 99.9 %
CRC теста CE29A8E4
CRC копии CE29A8E4
Точное извлечение (достоверность 2) [1E30F36E] (AR v2)
Копирование... OK

Все треки извлечены точно

О?ибок не произо?ло

Конец отчёта

==== Контрольная сумма отчёта CA487916C252ED84B27817162E8FCA90CF3E10E6BB66314602CA2D50A7B89EFB ====

foobar2000 1.2 / Dynamic Range Meter 1.1.1
log date: 2015-08-06 23:59:35

Analyzed: Barbara Streisand / Lady Power - CD2 (1) Billy Holiday / Lady Power - CD2 (2) Connie Stevens / Lady Power - CD2 (3) Debby Reynolds / Lady Power - CD2 (4) Diana Ross & the Supremes / Lady Power - CD2 (5) Donna Fargo / Lady Power - CD2 (6) Doris Day / Lady Power - CD2 (7) Judy Garland / Lady Power - CD2 (8) LaVern Baker / Lady Power - CD2 (9) Lindsay De Paul / Lady Power - CD2 (10) Loretta Lynn / Lady Power - CD2 (11) Lulu / Lady Power - CD2 (12) Mahalia Jackson / Lady Power - CD2 (13) Marilyn Monroe / Lady Power - CD2 (14) Mary Hopkin / Lady Power - CD2 (15) Mary Wells / Lady Power - CD2 (16) Melanie / Lady Power - CD2 (17) Olivia Newton-John / Lady Power - CD2 (18) Pointer Sisters / Lady Power - CD2 (19) Sarah Vaughn / Lady Power - CD2 (20) Shelly Fabares / Lady Power - CD2 (21) Tammy Wynette / Lady Power - CD2 (22) Tanya Tucker / Lady Power - CD2 (23) The Shangri-Las / Lady Power - CD2 (24) Wanda Jackson / Lady Power - CD2 (25)

DR Peak RMS Duration Track

DR10 -3.39 dB -16.72 dB 3:07 02-Happy days are here again
DR12 0.00 dB -16.39 dB 3:19 22-Georgia on my mind
DR9 -5.09 dB -16.24 dB 1:57 08-Sixteen reasons
DR11 -0.17 dB -14.28 dB 3:06 14-Tammy
DR11 -0.89 dB -13.77 dB 2:39 07-Baby love
DR11 -0.72 dB -14.05 dB 2:33 16-The happies girl in the USA
DR8 -1.11 dB -11.75 dB 2:04 03-Que sera sera (whatever will be)
DR10 -0.45 dB -14.06 dB 2:48 15-Over the rainbow
DR14 -0.25 dB -16.60 dB 3:04 21-Tweedle dee
DR10 -0.17 dB -12.40 dB 3:35 11-Sugar me
DR13 -3.08 dB -18.34 dB 2:32 20-Love is the foundation
DR12 -0.18 dB -14.59 dB 2:46 19-To sire with love
DR10 0.00 dB -13.34 dB 3:14 25-Go tell it on the mountain
DR11 -0.27 dB -12.70 dB 3:31 10-Diamond are a girls best friend
DR11 0.00 dB -13.39 dB 3:37 05-Those were the days
DR11 0.00 dB -13.55 dB 2:32 04-My guy
DR8 -1.34 dB -14.25 dB 4:35 17-Ruby Tuesday
DR11 -1.21 dB -17.01 dB 3:38 13-I honestly love you
DR12 -0.10 dB -14.80 dB 3:34 23-He's to shy
DR10 -0.17 dB -13.45 dB 2:35 09-Whatever Lola wants
DR11 -1.77 dB -14.97 dB 2:10 06-Johnny Angel
DR11 -0.88 dB -15.63 dB 2:39 12-Stand by your man
DR10 -5.36 dB -17.00 dB 3:47 24-The night they drove ole dixie down
DR10 -1.04 dB -13.01 dB 2:49 18-Leader of the pack
DR11 -0.24 dB -13.07 dB 2:11 01-Let's have a party

Number of tracks: 25
Official DR value: DR11

Samplerate: 44100 Hz
Channels: 2
Bits per sample: 16
Bitrate: 847 kbps
Codec: FLAC

http://i70.fastpic.ru/big/2015/0811/6f/1de473c08fef220abd6f61b8ddd4bc6f.jpg

All thanks to original releaser - clustert
Password: designol

DOWNLOAD LINKS:
Buy Premium To Support Me & Get Resumable Support & Max Speed


Links are Interchangeable - No Password - Single Extraction



Ad2

 
 
 
Dear visitor, you went to the site as an unregistered user. We encourage you to register or enter the site under your name.
 
   
 
 (Votes #: 0)