2013Zone For Latest Downloads

 
     
 
Legal Downloads » Movies » Boccaccio 70 (1962)
Menu
Home Applications
Games Movies
Music TV Shows
Torrents Graphics

Sitemap

RSS
 
Advanced Search
Last News
Site Info
Top Contributors:
  1    supper88 32766
  2    admin 32671
  3    Whisky 10080
  4    Shark_ 8911
  5    creativelivenew 8706
  6    whathesupa 2799
  7    candymypost 840
  8    hvnteam 629
  9    vuong87 3


Articles:
  This Hour: 0
  Today: 0
  This Month: 59
  All Time: 515636


Torrents:
  Today: 0
  Yesterday: 0
  All Time: 156702


Membership:
  Registered Today :0
  This Hour:0
  This Month:0
  Total:14
  Banned:1

{online}
{inform_torrent}
Friend:
We Recomend
Trend
Trend

Search In Site

Movies : Boccaccio 70 (1962)
 
http://i69.fastpic.ru/big/2015/0811/ba/c385cdcadbde3a8bfcd61d0ed1fd4dba.jpg

Boccaccio 70 (1962)
Bluray-rip 720p | 1280x688 | MKV/x264 @ 4807 Kbps | 203mn | Audio: Italian DTS 755 kbps, 1 channels | Subs: English | 7.95 GB
Genre: Comedy | Fantasy | Romance

Four directors tell tales of Eros fit for a 1970s Decameron. Working-class lovers, Renzo and Luciana, marry but must hide it from her employer; plus, they need a room of their own. A billboard of Anita Ekberg provocatively selling milk gives a prudish crusader for public decency more than he can handle. The wife of a count whose escapades with call girls make the front page of the papers decides to work to prove her independence, but what is she qualified to do? A buxom carnival-booth manager who owes back taxes offers herself for one night in a lottery: a nerdy sacristan and a jealous cowboy make for a lovers' triangle. In each, women take charge, but not always happily.
More info

Video
ID
: 1
Format : AVC
Format/Info

: Advanced Video Codec
Format profile : [email protected]
Format settings, CABAC : Yes
Format settings, ReFrames : 5 frames
Format settings, GOP : M=4, N=16
Codec ID : V_MPEG4/ISO/AVC
Duration : 3h 23mn
Bit rate : 4 807 Kbps
Width : 1 280 pixels
Height : 688 pixels
Display aspect ratio : 1.860
Frame rate

: 23.976 fps
Color space

: YUV
Chroma subsampling : 4:2:0
Bit depth: 8 bits
Scan type: Progressive
Bits/(Pixel*Frame) : 0.228
Stream size

: 6.71 GiB (84%)
Writing library : x264 core 146 r2538 121396c
Encoding settings : cabac=1 / ref=5 / deblock=1:0:0 / analyse=0x3:0x133 / me=umh / subme=8 / psy=1 / psy_rd=1.00:0.00 / mixed_ref=1 / me_range=16 / chroma_me=1 / trellis=1 / 8x8dct=1 / cqm=0 / deadzone=21,11 / fast_pskip=0 / chroma_qp_offset=-2 / threads=12 / lookahead_threads=2 / sliced_threads=0 / nr=0 / decimate=1 / interlaced=0 / bluray_compat=0 / constrained_intra=0 / bframes=3 / b_pyramid=2 / b_adapt=1 / b_bias=0 / direct=1 / weightb=1 / open_gop=0 / weightp=2 / keyint=250 / keyint_min=23 / scenecut=40 / intra_refresh=0 / rc_lookahead=40 / rc=2pass / mbtree=1 / bitrate=4807 / ratetol=1.0 / qcomp=0.60 / qpmin=0 / qpmax=69 / qpstep=4 / cplxblur=20.0 / qblur=0.5 / ip_ratio=1.40 / aq=1:1.00
Language : Italian

Audio
ID
: 2
Format : DTS
Format/Info

: Digital Theater Systems
Codec ID : A_DTS
Duration : 3h 23mn
Bit rate mode : Constant
Bit rate : 755 Kbps
Channel(s)

: 1 channel
Channel positions : Mono
Sampling rate : 48.0 KHz
Bit depth: 24 bits
Compression mode : Lossy
Stream size

: 1.07 GiB (14%)
Language : Italian

Text
ID
: 3
Format : UTF-8
Codec ID : S_TEXT/UTF8
Codec ID/Info : UTF-8 Plain Text
Language : English

http://i72.fastpic.ru/big/2015/0811/f9/c79b5723b0e6bae781d5782ab79934f9.jpg


DOWNLOAD LINKS:
Buy Premium To Support Me & Get Resumable Support & Max Speed


Links are Interchangeable - No Password - Single Extraction

 
 
 
Dear visitor, you went to the site as an unregistered user. We encourage you to register or enter the site under your name.
 
   
 
 (Votes #: 0)