2013Zone For Latest Downloads

 
     
 
Legal Downloads » Music » Tom Petty & The Heartbreakers - Greatest Hits (2008)
Menu
Home Applications
Games Movies
Music TV Shows
Torrents Graphics

Sitemap

RSS
 
Advanced Search
Last News
Site Info
Top Contributors:
  1    supper88 32766
  2    admin 32671
  3    Whisky 10080
  4    Shark_ 8911
  5    creativelivenew 8706
  6    whathesupa 2799
  7    candymypost 840
  8    hvnteam 629
  9    vuong87 3


Articles:
  This Hour: 0
  Today: 0
  This Month: 40
  All Time: 515636


Torrents:
  Today: 0
  Yesterday: 0
  All Time: 156702


Membership:
  Registered Today :0
  This Hour:0
  This Month:0
  Total:14
  Banned:1

{online}
{inform_torrent}
Friend:
We Recomend
Trend
Trend

Search In Site

Music : Tom Petty & The Heartbreakers - Greatest Hits (2008)
 
http://i69.fastpic.ru/big/2015/0811/49/2379cdf5df7e587c35cba12c97201e49.jpg

Tom Petty & The Heartbreakers - Greatest Hits (2008)
EAC Rip | FLAC (Img) + Cue + Log ~ 524 Mb | MP3 CBR320 ~ 175 Mb
Covers Included (JPG, 300 dpi) | RAR 5% Recovery
Classic Rock | Geffen Records #00602517522961

"Reissue of Tom Petty & The Heartbreakers Greatest Hits, originally released in 1993, has gone on to be the best selling collection in the band's four decades and counting career. Over seven times platinum, this collection now has been remastered, updated..."

Wiki | Discogs | All Music
***************

http://i70.fastpic.ru/big/2015/0811/79/82c2d56bdbd731a2f34e88cdfa7d0a79.jpg

Track List:

01. American Girl [03:33]
02. Breakdown [02:43]
03. Listen To Her Heart [03:04]
04. I Need To Know [02:25]
05. Refugee [03:23]
06. Don't Do Me Like That [02:43]
07. Even The Losers [03:39]
08. Here Comes My Girl [04:26]
09. The Waiting [04:00]
10. You Got Lucky [03:37]
11. Don't Come Around Here No More [05:05]
12. I Won't Back Down [02:58]
13. Runnin' Down A Dream [04:24]
14. Free Fallin' [04:16]
15. Learning To Fly [04:03]
16. Into The Great Wide Open [03:44]
17. Mary Jane's Last Dance [04:33]
18. Stop Draggin' My Heart Around (with Stevie Nicks) [04:04]

Exact Audio Copy V1.0 beta 3 from 29. August 2011

EAC extraction logfile from 6. August 2015, 7:30

Tom Petty And The Heartbreakers / Greatest Hits

Used drive : MATSHITABD-CMB UJ242AS Adapter: 0 ID: 1

Read mode : Secure
Utilize accurate stream : Yes
Defeat audio cache : Yes
Make use of C2 pointers : No

Read offset correction

: 103
Overread into Lead-In and Lead-Out : No
Fill up missing offset samples with silence : Yes
Delete leading and trailing silent blocks : No
Null samples used in CRC calculations : Yes
Used interface
: Installed external ASPI interface

Used output format : User Defined Encoder
Selected bitrate : 1024 kBit/s
Quality : High
Add ID3 tag : Yes
Command line compressor : C:\Program Files (x86)\Exact Audio Copy\Flac\flac.exe
Additional command line options : -V -8 -T "Date=%year%" -T "Genre=%genre%" %source%

TOC of the extracted CD Track | Start | Length | Start sector | End sector
--1 | 0:00.00 | 3:32.34 | 0 | 15933 2 | 3:32.34 | 2:42.20 | 15934 | 28103 3 | 6:14.54 | 3:03.57 | 28104 | 41885 4 | 9:18.36 | 2:24.03 | 41886 | 52688 5 | 11:42.39 | 3:22.01 | 52689 | 67839 6 | 15:04.40 | 2:42.30 | 67840 | 80019 7 | 17:46.70 | 3:38.45 | 80020 | 96414 8 | 21:25.40 | 4:25.08 | 96415 | 116297 9 | 25:50.48 | 3:59.01 | 116298 | 134223
10 | 29:49.49 | 3:36.08 | 134224 | 150431
11 | 33:25.57 | 5:04.09 | 150432 | 173240
12 | 38:29.66 | 2:57.05 | 173241 | 186520
13 | 41:26.71 | 4:23.20 | 186521 | 206265
14 | 45:50.16 | 4:15.51 | 206266 | 225441
15 | 50:05.67 | 4:02.30 | 225442 | 243621
16 | 54:08.22 | 3:43.58 | 243622 | 260404
17 | 57:52.05 | 4:32.36 | 260405 | 280840
18 | 62:24.41 | 4:03.25 | 280841 | 299090

Range status and errors

Selected range Filename C:\EACrip\Tom Petty And The Heartbreakers - Greatest Hits.wav Peak level 98.8 %
Extraction speed 4.2 X
Range quality 99.9 %
Test CRC D0C50FAD
Copy CRC D0C50FAD
Copy OK

No errors occurred


AccurateRip summary

Track 1 accurately ripped (confidence 99) [DA667B37] (AR v2)
Track 2 accurately ripped (confidence 99) [8748FEC7] (AR v2)
Track 3 accurately ripped (confidence 98) [27A0613F] (AR v2)
Track 4 accurately ripped (confidence 98) [3E23DACB] (AR v2)
Track 5 accurately ripped (confidence 99) [6B181E40] (AR v2)
Track 6 accurately ripped (confidence 97) [9CC62F32] (AR v2)
Track 7 accurately ripped (confidence 98) [D2746151] (AR v2)
Track 8 accurately ripped (confidence 99) [447FCC22] (AR v2)
Track 9 accurately ripped (confidence 99) [ACF04149] (AR v2)
Track 10 accurately ripped (confidence 99) [3AE9FC3A] (AR v2)
Track 11 accurately ripped (confidence 99) [73C8698E] (AR v2)
Track 12 accurately ripped (confidence 100) [6240FDDF] (AR v2)
Track 13 accurately ripped (confidence 99) [18C2F7D1] (AR v2)
Track 14 accurately ripped (confidence 100) [49C19727] (AR v2)
Track 15 accurately ripped (confidence 100) [60D370A4] (AR v2)
Track 16 accurately ripped (confidence 99) [43CEDF81] (AR v2)
Track 17 accurately ripped (confidence 99) [E35B226B] (AR v2)
Track 18 accurately ripped (confidence 96) [0D1F9EB0] (AR v2)

All tracks accurately ripped

End of status report

==== Log checksum 3469EC0091B1B6A603C47D531095A10FD84FE61DB42F1BE8E6104EE827F1BEF0 ====

foobar2000 1.2.6 / Dynamic Range Meter 1.1.1
log date: 2015-08-09 02:39:30

Analyzed: Tom Petty And The Heartbreakers / Greatest Hits

DR Peak RMS Duration Track

DR8 -0.10 dB -9.51 dB 3:32 01-American Girl
DR9 -0.10 dB -11.67 dB 2:42 02-Breakdown
DR8 -0.10 dB -9.13 dB 3:04 03-Listen To Her Heart
DR7 -0.10 dB -7.99 dB 2:24 04-I Need To Know
DR7 -0.10 dB -8.53 dB 3:22 05-Refugee
DR8 -0.10 dB -9.81 dB 2:42 06-Don't Do Me Like That
DR7 -0.10 dB -8.27 dB 3:39 07-Even The Losers
DR6 -0.10 dB -7.99 dB 4:25 08-Here Comes My Girl
DR6 -0.10 dB -7.63 dB 3:59 09-The Waiting
DR7 -0.10 dB -9.31 dB 3:36 10-You Got Lucky
DR7 -0.10 dB -8.72 dB 5:04 11-Don't Come Around Here No More
DR7 -0.10 dB -9.15 dB 2:57 12-I Won't Back Down
DR6 -0.10 dB -7.39 dB 4:23 13-Runnin' Down A Dream
DR8 -0.10 dB -10.21 dB 4:16 14-Free Fallin'
DR7 -0.10 dB -8.30 dB 4:02 15-Learning To Fly
DR7 -0.10 dB -7.97 dB 3:44 16-Into The Great Wide Open
DR7 -0.10 dB -8.05 dB 4:32 17-Mary Jane's Last Dance
DR6 -0.10 dB -8.24 dB 4:03 18-Stop Draggin' My Heart Around (with Stevie Nicks)

Number of tracks: 18
Official DR value: DR7

Samplerate: 44100 Hz
Channels: 2
Bits per sample: 16
Bitrate: 1018 kbps
Codec: FLAC

[CUETools log; Date: 09.08.2015 2:39:35; Version: 2.1.5]
HDCD: peak extend: none, transient filter: none, gain: none
[CTDB TOCID: QeEqEbboFmqLC37i4JjMHXMKaEY-] found.
Track | CTDB Status
1 | (104/104) Accurately ripped
2 | (104/104) Accurately ripped
3 | (104/104) Accurately ripped
4 | (104/104) Accurately ripped
5 | (104/104) Accurately ripped
6 | (104/104) Accurately ripped
7 | (104/104) Accurately ripped
8 | (103/104) Accurately ripped
9 | (104/104) Accurately ripped
10 | (102/104) Accurately ripped
11 | (103/104) Accurately ripped
12 | (104/104) Accurately ripped
13 | (103/104) Accurately ripped
14 | (104/104) Accurately ripped
15 | (104/104) Accurately ripped
16 | (102/104) Accurately ripped
17 | (102/104) Accurately ripped
18 | (102/104) Accurately ripped
[AccurateRip ID: 002893c7-0227d5cb-ee0f9312] found.
Track [ CRC | V2 ] Status
01 [98894839|da667b37] (106+099/224) Accurately ripped
02 [272f38f5|8748fec7] (108+099/226) Accurately ripped
03 [cc5a4430|27a0613f] (108+098/225) Accurately ripped
04 [0bb7d7b9|3e23dacb] (108+098/225) Accurately ripped
05 [e4e032e0|6b181e40] (107+099/225) Accurately ripped
06 [736b303d|9cc62f32] (108+097/224) Accurately ripped
07 [10b76dcd|d2746151] (109+098/226) Accurately ripped
08 [1f6379d0|447fcc22] (108+099/226) Accurately ripped
09 [168cd17f|acf04149] (108+099/226) Accurately ripped
10 [24faac41|3ae9fc3a] (108+099/226) Accurately ripped
11 9ffb41e|73c8698e (108+099/226) Accurately ripped
12 [d6954c7c|6240fddf] (107+100/226) Accurately ripped
13 [8e562b1b|18c2f7d1] (106+099/224) Accurately ripped
14 [492dc2c0|49c19727] (107+100/226) Accurately ripped
15 [1f1046ac|60d370a4] (107+100/226) Accurately ripped
16 [7cddbd4f|43cedf81] (106+099/224) Accurately ripped
17 fe348b8|e35b226b (105+099/223) Accurately ripped
18 [93665bed|0d1f9eb0] (107+096/222) Accurately ripped
Offsetted by -664:
01 [5a61f2cf] (008/224) Accurately ripped
02 [7ef5670d] (008/226) Accurately ripped
03 [3867dec9] (008/225) Accurately ripped
04 [9a28dd8e] (008/225) Accurately ripped
05 [d903b183] (008/225) Accurately ripped
06 [e9ef5b00] (008/224) Accurately ripped
07 [340576d3] (008/226) Accurately ripped
08 [1e5797bc] (008/226) Accurately ripped
09 [39ae2b20] (008/226) Accurately ripped
10 [1fb89c25] (008/226) Accurately ripped
11 [46b9550c] (008/226) Accurately ripped
12 [ea7cb401] (008/226) Accurately ripped
13 [fbc827bd] (008/224) Accurately ripped
14 [3a221593] (008/226) Accurately ripped
15 [ce70d32c] (008/226) Accurately ripped
16 [75e7ccb6] (008/224) Accurately ripped
17 [cadcec46] (008/223) Accurately ripped
18 [0423bb7a] (008/222) Accurately ripped
Offsetted by -54:
01 [97cf32f7] (002/224) Accurately ripped
02 [986a0e00] (002/226) Accurately ripped
03 ea8b084 (002/225) Accurately ripped
04 [101f34b8] (002/225) Accurately ripped
05 [923eca6c] (002/225) Accurately ripped
06 [87bb01fd] (002/224) Accurately ripped
07 [02b1a0c7] (002/226) Accurately ripped
08 [4296b575] (002/226) Accurately ripped
09 [998d13f1] (002/226) Accurately ripped
10 [7dec6d82] (002/226) Accurately ripped
11 [4982d03f] (002/226) Accurately ripped
12 [78553ddf] (002/226) Accurately ripped
13 eb9e967 (002/224) Accurately ripped
14 [2699d11f] (002/226) Accurately ripped
15 [673a95a8] (002/226) Accurately ripped
16 cc47f79 (002/224) Accurately ripped
17 [fffd71f4] (002/223) Accurately ripped
18 [6ff21266] (002/222) Accurately ripped

Track Peak [ CRC32 ] [W/O NULL] [ LOG ]
-- 98,8 [D0C50FAD] [0B85FE79] CRC32
01 98,8 [A0B0524E] [E2A9148C]
02 98,8 [C6BBBFDA] [4C062F25]
03 98,8 8927668 [4319C2C5]
04 98,8 [A2D5FD0D] [A26D63EE]
05 98,8 [AE209CD0] [53291535]
06 98,8 [196AB2AD] [0613A805]
07 98,8 [7AC32830] [0E6A969C]
08 98,8 [EC4BB7ED] [E95D9E7E]
09 98,8 [543F9483] [D4B858B8]
10 98,8 [632969F2] [A6349193]
11 98,8 [FBF674CE] [4F026FAF]
12 98,8 [741C37DC] [47A2FE7A]
13 98,8 [98721C92] [EE6ABEA6]
14 98,8 [42C7BD9A] [915466B2]
15 98,8 [9B872498] 6C63203
16 98,8 [978B9683] [D3DC7DFA]
17 98,8 [EFDE74A5] [3BE5243D]
18 98,8 [E12F1D89] [ABADFDB4]

http://i72.fastpic.ru/big/2015/0811/de/1ab324adca0b0b6f7fbcc7bcd1e6aede.jpg

All thanks go to rd


DOWNLOAD LINKS:
Buy Premium To Support Me & Get Resumable Support & Max Speed


Links are Interchangeable - No Password - Single Extraction

 
 
 
Dear visitor, you went to the site as an unregistered user. We encourage you to register or enter the site under your name.
 
   
 
 (Votes #: 0)