2013Zone For Latest Downloads

 
     
 
Legal Downloads » Music » Billy Taylor - Impromptu (1962) {2002 Japan Mini LP 24-bit Remaster}
Menu
Home Applications
Games Movies
Music TV Shows
Torrents Graphics

Sitemap

RSS
 
Advanced Search
Last News
Site Info
Top Contributors:
  1    supper88 32766
  2    admin 32691
  3    Whisky 10080
  4    Shark_ 8911
  5    creativelivenew 8706
  6    whathesupa 2799
  7    candymypost 840
  8    hvnteam 629
  9    vuong87 3


Articles:
  This Hour: 0
  Today: 0
  This Month: 38
  All Time: 515597


Torrents:
  Today: 0
  Yesterday: 0
  All Time: 156683


Membership:
  Registered Today :0
  This Hour:0
  This Month:0
  Total:14
  Banned:1

{online}
{inform_torrent}
Friend:
We Recomend
Trend
Trend
Ad1

Search In Site

Music : Billy Taylor - Impromptu (1962) {2002 Japan Mini LP 24-bit Remaster}
 

http://i69.fastpic.ru/big/2015/0811/e8/3c44e2b27c68431f1a378180eba657e8.jpg
Billy Taylor - Impromptu (1962) {2002 Japan Mini LP 24-bit Remaster}
EAC rip (secure mode) | FLAC (tracks)+CUE+LOG -> 261 Mb | MP3 @320 -> 102 Mb
Full Artwork @ 600 dpi (jpg) -> 65 Mb | 5% repair rar
© 2002 Mercury / Verve / Universal Music Japan | UCCM-9126
Jazz / Bop / Hard Bop / Piano

"Billy Taylor has done a lot for jazz as an educator, promoter, and performer, but far too many of his releases from the 1950s and 1960s, such as this date for Mercury, remain out of print. The talented pianist is joined by the very strong rhythm section of Jim Hall, Bob Cranshaw, and Walter Perkins on this 1962 release, which focuses exclusively on his original compositions. Several of these songs have remained in his repertoire and have been recorded again in the decades that followed, including "Capricious," "Paraphrase," and "At la Carousel." The high point, though, is the tense up-tempo "Don't Gon't Down South," written during the turbulent battle for civil rights, which features fine solos by both the leader and Hall."

http://i70.fastpic.ru/big/2015/0811/a3/cca9a0437921697b92c68d87db1918a3.jpg


Personnel:
Billy Taylor - piano
Jim Hall - guitar
Bob Cranshaw - bass
Walter Perkins - drums

tracklist:
01 - Capricious
02 - Impromptu
03 - Don't Go Down South
04 - Muffle Guffle
05 - Free And Oozy
06 - Paraphrase
07 - Empty Ballroom (Une Salle De Bal Vide)
08 - At La Carrousel

Exact Audio Copy V0.99 prebeta 5 from 4. May 2009

EAC extraction logfile from 18. June 2012, 2:02

Billy Taylor / Impromptu

Used drive : PLEXTOR DVDR PX-L890SA Adapter: 6 ID: 0

Read mode : Secure
Utilize accurate stream : Yes
Defeat audio cache : Yes
Make use of C2 pointers : No

Read offset correction

: 6
Overread into Lead-In and Lead-Out : No
Fill up missing offset samples with silence : Yes
Delete leading and trailing silent blocks : No
Null samples used in CRC calculations : Yes
Used interface
: Native Win32 interface for Win NT & 2000
Gap handling
: Appended to previous track

Used output format : User Defined Encoder
Selected bitrate : 1024 kBit/s
Quality : High
Add ID3 tag : No
Command line compressor : C:\Program Files (x86)\FLAC Frontend\tools\flac.exe
Additional command line options : -8 -V -T "ARTIST=%a" -T "TITLE=%t" -T "ALBUM=%g" -T "DATE=%y" -T "TRACKNUMBER=%n" -T "GENRE=%m" -T "COMMENT=EAC FLAC -8" %s

TOC of the extracted CD Track | Start | Length | Start sector | End sector
--1 | 0:00.00 | 2:26.62 | 0 | 11011 2 | 2:26.62 | 9:47.08 | 11012 | 55044 3 | 12:13.70 | 3:54.42 | 55045 | 72636 4 | 16:08.37 | 4:58.05 | 72637 | 94991 5 | 21:06.42 | 6:37.50 | 94992 | 124816 6 | 27:44.17 | 5:00.45 | 124817 | 147361 7 | 32:44.62 | 4:30.15 | 147362 | 167626 8 | 37:15.02 | 6:14.73 | 167627 | 195749

Track 1 Filename D:\Billy Taylor - Impromptu (1962) [FLAC] {2002 Japan Mini LP 24-bit Remaster}\01 - Capricious.wav Pre-gap length 0:00:02.00 Peak level 73.9 %
Track quality 100.0 %
Test CRC C4A72F76
Copy CRC C4A72F76
Cannot be verified as accurate (confidence 1) [7FA87D69], AccurateRip returned [37F90CBA]
Copy OK

Track 2 Filename D:\Billy Taylor - Impromptu (1962) [FLAC] {2002 Japan Mini LP 24-bit Remaster}\02 - Impromptu.wav Peak level 57.9 %
Track quality 100.0 %
Test CRC 3CCF9DAC
Copy CRC 3CCF9DAC
Cannot be verified as accurate (confidence 1) [6838608B], AccurateRip returned [565B640B]
Copy OK

Track 3 Filename D:\Billy Taylor - Impromptu (1962) [FLAC] {2002 Japan Mini LP 24-bit Remaster}\03 - Don't Go Down South.wav Peak level 63.3 %
Track quality 100.0 %
Test CRC EB774D25
Copy CRC EB774D25
Cannot be verified as accurate (confidence 1) [E7D67BD1], AccurateRip returned [05ED3FC2]
Copy OK

Track 4 Filename D:\Billy Taylor - Impromptu (1962) [FLAC] {2002 Japan Mini LP 24-bit Remaster}\04 - Muffle Guffle.wav Peak level 99.9 %
Track quality 100.0 %
Test CRC 5D4A4791
Copy CRC 5D4A4791
Cannot be verified as accurate (confidence 1) [8D22830C], AccurateRip returned [7F078407]
Copy OK

Track 5 Filename D:\Billy Taylor - Impromptu (1962) [FLAC] {2002 Japan Mini LP 24-bit Remaster}\05 - Free And Oozy.wav Peak level 91.8 %
Track quality 100.0 %
Test CRC 638F37E3
Copy CRC 638F37E3
Cannot be verified as accurate (confidence 1) 962F142, AccurateRip returned [CF7B25CA]
Copy OK

Track 6 Filename D:\Billy Taylor - Impromptu (1962) [FLAC] {2002 Japan Mini LP 24-bit Remaster}\06 - Paraphrase.wav Peak level 85.5 %
Track quality 100.0 %
Test CRC E0DAFC53
Copy CRC E0DAFC53
Cannot be verified as accurate (confidence 1) [E62E0C9A], AccurateRip returned [E79D7550]
Copy OK

Track 7 Filename D:\Billy Taylor - Impromptu (1962) [FLAC] {2002 Japan Mini LP 24-bit Remaster}\07 - Empty Ballroom (Une Salle De Bal Vide).wav Peak level 80.4 %
Track quality 100.0 %
Test CRC 7CAA2A2C
Copy CRC 7CAA2A2C
Cannot be verified as accurate (confidence 1) [91869D31], AccurateRip returned [5F6F9D3B]
Copy OK

Track 8 Filename D:\Billy Taylor - Impromptu (1962) [FLAC] {2002 Japan Mini LP 24-bit Remaster}\08 - At La Carrousel.wav Peak level 86.0 %
Track quality 100.0 %
Test CRC 7B1161EC
Copy CRC 7B1161EC
Cannot be verified as accurate (confidence 1) [EA86F55E], AccurateRip returned [0B510099]
Copy OK

No tracks could be verified as accurate
You may have a different pressing from the one(s) in the database

No errors occurred

End of status report

http://i72.fastpic.ru/big/2015/0811/85/e6c936aa3156df9786f7781b612ab785.jpg

http://i69.fastpic.ru/big/2015/0811/15/56325903ddf8335498d8ab84ae56e915.jpg


thanks to 0xxa & Mel...
DOWNLOAD LINKS:
Buy Premium To Support Me & Get Resumable Support & Max Speed


Links are Interchangeable - No Password - Single Extraction

Billy Taylor - Impromptu (1962) {2002 Japan Mini LP 24-bit Remaster} Fast Download


Ad2

 
 
 
Dear visitor, you went to the site as an unregistered user. We encourage you to register or enter the site under your name.
 
   
 
 (Votes #: 0)