2013Zone For Latest Downloads

 
     
 
Legal Downloads » Music » Crosby, Stills, Nash & Young - So Far (1974) [Atlantic, 7567-81518-2]
Menu
Home Applications
Games Movies
Music TV Shows
Torrents Graphics

Sitemap

RSS
 
Advanced Search
Last News
Site Info
Top Contributors:
  1    supper88 32766
  2    admin 32671
  3    Whisky 10080
  4    Shark_ 8911
  5    creativelivenew 8706
  6    whathesupa 2799
  7    candymypost 840
  8    hvnteam 629
  9    vuong87 3


Articles:
  This Hour: 0
  Today: 0
  This Month: 40
  All Time: 515636


Torrents:
  Today: 0
  Yesterday: 0
  All Time: 156702


Membership:
  Registered Today :0
  This Hour:0
  This Month:0
  Total:14
  Banned:1

{online}
{inform_torrent}
Friend:
We Recomend
Trend
Trend

Search In Site

Music : Crosby, Stills, Nash & Young - So Far (1974) [Atlantic, 7567-81518-2]
 
http://i71.fastpic.ru/big/2015/0811/44/f52dda2fb06c4ba904967def20e61144.jpg

Crosby, Stills, Nash & Young - So Far (1974)
EAC | Flac(Image) + Cue + Log & MP3 CBR 320Kbps
198? | Atlantic, 7567-81518-2 | ~ 260 or 113 Mb | Scans Included
Folk Rock / Country Rock

"Unbeknown to most fans, So Far was a stopgap release, undertaken by Atlantic Records in the absence of a new Crosby, Stills, Nash & Young album to accompany the reunited quartet's summer 1974 tour..."


Tracklist:

01. Deja Vu [4:15]
02. Helplessly Hoping [2:42]
03. Wooden Ships [5:30]
04. Teach Your Children [2:59]
05. Ohio [3:05]
06. Find The Cost Of Freedom [2:01]
07. Woodstock [3:57]
08. Our House [3:03]
09. Helpless [3:40]
10. Guinnevere [4:42]
11. Suite: Judy Blue Eyes [7:24]

Exact Audio Copy V1.0 beta 3 from 29. August 2011

EAC extraction logfile from 29. May 2014, 11:18

Crosby, Stills, Nash & Young / So Far

Used drive : PLEXTOR DVD-ROM PX-130A Adapter: 3 ID: 0

Read mode : Secure
Utilize accurate stream : Yes
Defeat audio cache : Yes
Make use of C2 pointers : No

Read offset correction

: 738
Overread into Lead-In and Lead-Out : No
Fill up missing offset samples with silence : Yes
Delete leading and trailing silent blocks : No
Null samples used in CRC calculations : Yes
Used interface
: Installed external ASPI interface

Used output format : Internal WAV Routines
Sample format : 44.100 Hz; 16 Bit; Stereo

TOC of the extracted CD Track | Start | Length | Start sector | End sector
--1 | 0:00.00 | 4:14.63 | 0 | 19112 2 | 4:14.63 | 2:41.57 | 19113 | 31244 3 | 6:56.45 | 5:30.30 | 31245 | 56024 4 | 12:27.00 | 2:59.00 | 56025 | 69449 5 | 15:26.00 | 3:05.03 | 69450 | 83327 6 | 18:31.03 | 2:01.37 | 83328 | 92439 7 | 20:32.40 | 3:56.38 | 92440 | 110177 8 | 24:29.03 | 3:02.42 | 110178 | 123869 9 | 27:31.45 | 3:40.23 | 123870 | 140392
10 | 31:11.68 | 4:42.10 | 140393 | 161552
11 | 35:54.03 | 7:23.72 | 161553 | 194849

Range status and errors

Selected range Filename D:\Crosby, Stills, Nash & Young - So Far.wav Peak level 100.0 %
Extraction speed 8.3 X
Range quality 100.0 %
Test CRC 9BCE2423
Copy CRC 9BCE2423
Copy OK

No errors occurred


AccurateRip summary

Track 1 accurately ripped (confidence 9) [FD797A4F] (AR v2)
Track 2 accurately ripped (confidence 9) [6D1EBB2F] (AR v2)
Track 3 accurately ripped (confidence 9) [50934467] (AR v2)
Track 4 accurately ripped (confidence 9) [14F3FB01] (AR v2)
Track 5 accurately ripped (confidence 8) [71DFEAFD] (AR v2)
Track 6 accurately ripped (confidence 8) [F141EC56] (AR v2)
Track 7 accurately ripped (confidence 8) [DFF829E9] (AR v2)
Track 8 accurately ripped (confidence 9) [676AF45B] (AR v2)
Track 9 accurately ripped (confidence 9) [A9A0CFB9] (AR v2)
Track 10 accurately ripped (confidence 8) [630EE98B] (AR v2)
Track 11 accurately ripped (confidence 8) [F0266142] (AR v2)

All tracks accurately ripped

End of status report

==== Log checksum 72070C12473111172D54251CDC20DDD3B05AB0A1D266BBC8A3D53CF169600617 ====

foobar2000 1.2.9 / Dynamic Range Meter 1.1.1
log date: 2015-08-08 21:35:59

Analyzed: Crosby, Stills, Nash & Young / So Far

DR Peak RMS Duration Track

DR13 -0.12 dB -16.48 dB 4:15 01-Deja Vu
DR13 -2.60 dB -18.19 dB 2:42 02-Helplessly Hoping
DR11 -0.31 dB -15.36 dB 5:30 03-Wooden Ships
DR13 -0.87 dB -16.46 dB 2:59 04-Teach Your Children
DR11 -0.37 dB -14.99 dB 3:05 05-Ohio
DR11 -2.25 dB -18.90 dB 2:01 06-Find The Cost Of Freedom
DR11 0.00 dB -16.49 dB 3:57 07-Woodstock
DR13 -0.77 dB -18.72 dB 3:03 08-Our House
DR12 -0.09 dB -16.63 dB 3:40 09-Helpless
DR12 -4.04 dB -20.76 dB 4:42 10-Guinnevere
DR12 -0.35 dB -16.19 dB 7:24 11-Suite: Judy Blue Eyes

Number of tracks: 11
Official DR value: DR12

Samplerate: 44100 Hz
Channels: 2
Bits per sample: 16
Bitrate: 764 kbps
Codec: FLAC

[CUETools log; Date: 08.08.2015 21:31:13; Version: 2.1.4]
[CTDB TOCID: xGu5IVrZbIMUcyuBaSpO02kRKTs-] found.
Track | CTDB Status
1 | (12/12) Accurately ripped
2 | (12/12) Accurately ripped
3 | (12/12) Accurately ripped
4 | (12/12) Accurately ripped
5 | (12/12) Accurately ripped
6 | (12/12) Accurately ripped
7 | (12/12) Accurately ripped
8 | (12/12) Accurately ripped
9 | (12/12) Accurately ripped
10 | (12/12) Accurately ripped
11 | (12/12) Accurately ripped
[AccurateRip ID: 0010844d-008ee943-900a260b] found.
Track [ CRC | V2 ] Status
01 [7e9d3912|fd797a4f] (11+12/23) Accurately ripped
02 [0ac304f4|6d1ebb2f] (13+12/25) Accurately ripped
03 [96df0512|50934467] (13+12/25) Accurately ripped
04 [3f0fd700|14f3fb01] (13+12/25) Accurately ripped
05 [fe155cce|71dfeafd] (12+11/23) Accurately ripped
06 [24194522|f141ec56] (12+11/23) Accurately ripped
07 [cc2a8e08|dff829e9] (12+11/23) Accurately ripped
08 [cef170d2|676af45b] (12+12/24) Accurately ripped
09 [a53a4225|a9a0cfb9] (12+12/24) Accurately ripped
10 [70e35529|630ee98b] (12+11/23) Accurately ripped
11 [9d256dc5|f0266142] (12+11/23) Accurately ripped

Track Peak [ CRC32 ] [W/O NULL] [ LOG ]
-- 100,0 [9BCE2423] 6E7858B CRC32
01 98,6 [AC9DFA1B] [7BFD5280]
02 74,0 [072C83FA] [155CE1E0]
03 96,5 [F3239434] [4852FB33]
04 90,4 [1896E3A4] [CDFF9736]
05 95,8 [EDB8BF59] [CCFC9B90]
06 77,1 [6249043D] [225C596B]
07 100,0 [C28D2343] [5DD7D9E5]
08 91,4 [E0ED2B7E] [088FD9E0]
09 98,9 [37C455CF] [787AAFDF]
10 62,8 [694EA682] [5427C97E]
11 96,0 [4B544789] [AC3F4C0F]

http://i71.fastpic.ru/big/2015/0811/5a/e40f7d12c60262a00e1d1889c520875a.jpg

All thanks go to maestro



Download Crosby, Stills, Nash & Young - So Far (1974):


DOWNLOAD LINKS:
Buy Premium To Support Me & Get Resumable Support & Max Speed


Links are Interchangeable - No Password - Single Extraction

 
 
 
Dear visitor, you went to the site as an unregistered user. We encourage you to register or enter the site under your name.
 
   
 
 (Votes #: 0)