2013Zone For Latest Downloads

 
     
 
Legal Downloads » Music » Oskar Gottlieb Blarr - Jesus-Geburt: Weihnachtsoratorium (1992, MDG # A 3470/71) [RE-UP]
Menu
Home Applications
Games Movies
Music TV Shows
Torrents Graphics

Sitemap

RSS
 
Advanced Search
Last News
Site Info
Top Contributors:
  1    supper88 32766
  2    admin 32693
  3    Whisky 10080
  4    Shark_ 8911
  5    creativelivenew 8706
  6    whathesupa 2799
  7    candymypost 840
  8    hvnteam 629
  9    vuong87 3


Articles:
  This Hour: 0
  Today: 0
  This Month: 10
  All Time: 515561


Torrents:
  Today: 0
  Yesterday: 0
  All Time: 156684


Membership:
  Registered Today :0
  This Hour:0
  This Month:0
  Total:14
  Banned:1

{online}
{inform_torrent}
Friend:
We Recomend
Trend
Trend
Ad1

Search In Site

Music : Oskar Gottlieb Blarr - Jesus-Geburt: Weihnachtsoratorium (1992, MDG # A 3470/71) [RE-UP]
 

http://i67.fastpic.ru/big/2015/0830/f5/2590b5bc86208590e1b3881e6150eff5.jpg
Oskar Gottlieb Blarr - Jesus-Geburt: Weihnachtsoratorium
Chor der Neanderkirche / Neandersinfonietta / Oskar Gottlieb Blarr
2xCD | EAC+LOG+CUE | FLAC: 459 MB | Artwork, NO Booklet | 5% Recovery Info
Label/Cat#: MDG "Anthologie Deutscher Musik Im Osten" # A 3470/71 | Country/Year: Germany 1992
Genre: Classical | Style: Contemporary, Oratory, Sacred

"Oskar Gottlieb Blarr (born 6 May 1934 in East Prussia) is a German composer, organist and church musician. (...) As a composer Oskar Gottlieb Blarr created oratorios, orchestral works, chamber and organ music. He also composed numerous New Spiritual songs. He published many of his songs under the pseudonym Brother Choral Ogo..."




http://i65.fastpic.ru/big/2015/0830/42/a67108aefa5f1a2cedc481ce646a6542.jpg



Exact Audio Copy V1.0 beta 3 from 29. August 2011

EAC extraction logfile from 7. May 2013, 19:16

Chor der Neanderkirche - Neandersinfonietta - O.G. Blarr / Blarr: Jesus-Geburt - Weihnachtsoratorium (CD1)

Used drive : PIONEER BD-RW BDR-206 Adapter: 0 ID: 2

Read mode : Secure
Utilize accurate stream : Yes
Defeat audio cache : Yes
Make use of C2 pointers : No

Read offset correction

: 667
Overread into Lead-In and Lead-Out : No
Fill up missing offset samples with silence : Yes
Delete leading and trailing silent blocks : No
Null samples used in CRC calculations : Yes
Used interface
: Native Win32 interface for Win NT & 2000

Used output format : User Defined Encoder
Selected bitrate : 1024 kBit/s
Quality : High
Add ID3 tag : Yes
Command line compressor : C:\Program Files\FLAC\flac.exe
Additional command line options : -5 -T "Artist=%artist%" -T "Title=%title%" -T "Album=%albumtitle%" -T "Date=%year%" -T "Tracknumber=%tracknr%" -T "Genre=%genre%" %source% -o %dest%

TOC of the extracted CD Track | Start | Length | Start sector | End sector
--1 | 0:00.33 | 1:26.02 | 33 | 6484 2 | 1:26.35 | 16:54.73 | 6485 | 82607 3 | 18:21.33 | 14:41.67 | 82608 | 148749 4 | 33:03.25 | 18:40.65 | 148750 | 232814 5 | 51:44.15 | 20:14.53 | 232815 | 323917

Range status and errors

Selected range Filename F:\=== VINYL RIPS ===\=== EAC===\X FRESH RIP\Blarr- Jesus-Geburt - Weihnachtsoratorium (CD1).wav Peak level 93.9 %
Extraction speed 8.2 X
Range quality 100.0 %
Test CRC 4F8EA5DF
Copy CRC 4F8EA5DF
Copy OK

No errors occurred


AccurateRip summary

Track 1 not present in database
Track 2 not present in database
Track 3 not present in database
Track 4 not present in database
Track 5 not present in database

None of the tracks are present in the AccurateRip database

End of status report

- CUETools DB Plugin V2.1.3

[CTDB TOCID: FZsSd65kxZtgP2dB7atJaXK9L9A-] disk not present in database, Submit result: discs with pregaps not supported in this protocol version

==== Log checksum 3599E35730D5A1DE6DAC89FA9722A81A935D212B3C6C5A5B2147BE09327DBD71 ====

Exact Audio Copy V1.0 beta 3 from 29. August 2011

EAC extraction logfile from 7. May 2013, 19:55

Chor der Neanderkirche - Neandersinfonietta - O.G. Blarr / Blarr: Jesus-Geburt - Weihnachtsoratorium (CD2)

Used drive : PIONEER BD-RW BDR-206 Adapter: 0 ID: 2

Read mode : Secure
Utilize accurate stream : Yes
Defeat audio cache : Yes
Make use of C2 pointers : No

Read offset correction

: 667
Overread into Lead-In and Lead-Out : No
Fill up missing offset samples with silence : Yes
Delete leading and trailing silent blocks : No
Null samples used in CRC calculations : Yes
Used interface
: Native Win32 interface for Win NT & 2000

Used output format : User Defined Encoder
Selected bitrate : 1024 kBit/s
Quality : High
Add ID3 tag : Yes
Command line compressor : C:\Program Files\FLAC\flac.exe
Additional command line options : -5 -T "Artist=%artist%" -T "Title=%title%" -T "Album=%albumtitle%" -T "Date=%year%" -T "Tracknumber=%tracknr%" -T "Genre=%genre%" %source% -o %dest%

TOC of the extracted CD Track | Start | Length | Start sector | End sector
--1 | 0:00.33 | 25:20.00 | 33 | 114032 2 | 25:20.33 | 0:56.30 | 114033 | 118262 3 | 26:16.63 | 15:33.12 | 118263 | 188249 4 | 41:50.00 | 16:23.60 | 188250 | 262034 5 | 58:13.60 | 2:50.55 | 262035 | 274839

Range status and errors

Selected range Filename F:\=== VINYL RIPS ===\=== EAC===\X FRESH RIP\Blarr- Jesus-Geburt - Weihnachtsoratorium (CD2).wav Peak level 92.5 %
Extraction speed 7.6 X
Range quality 100.0 %
Test CRC 9C4415CA
Copy CRC 9C4415CA
Copy OK

No errors occurred


AccurateRip summary

Track 1 not present in database
Track 2 not present in database
Track 3 not present in database
Track 4 not present in database
Track 5 not present in database

None of the tracks are present in the AccurateRip database

End of status report

- CUETools DB Plugin V2.1.3

[CTDB TOCID: otJjJACaX9GEahBwyFYLYgEgL7w-] disk not present in database, Submit result: discs with pregaps not supported in this protocol version

==== Log checksum 4ADA1C258F0A53F8283E054BD66A27939049956CF4D318414C046A384054F907 ====

foobar2000 1.1.14a / Dynamic Range Meter 1.1.1
log date: 2013-05-08 13:48:52

Analyzed: Chor der Neanderkirche - Neandersinfonietta - O.G. Blarr / Blarr: Jesus-Geburt - Weihnachtsoratorium (CD1)

DR Peak RMS Duration Track

DR14 -23.47 dB -42.30 dB 1:26 01-I. Prolog
DR17 -0.55 dB -23.26 dB 16:55 02-II. Verkündigung an Zacharias
DR17 -4.92 dB -29.01 dB 14:42 03-III. Verkündigung an Maria
DR15 -5.73 dB -29.13 dB 18:41 04-IV. Lobgesang der Maria
DR18 -7.39 dB -32.29 dB 20:15 05-V. Lobgesang des Zacharias

Number of tracks: 5
Official DR value: DR16

Samplerate: 44100 Hz
Channels: 2
Bits per sample: 16
Bitrate: 469 kbps
Codec: FLAC

Analyzed: Chor der Neanderkirche - Neandersinfonietta - O.G. Blarr / Blarr: Jesus-Geburt - Weihnachtsoratorium (CD2)

DR Peak RMS Duration Track

DR19 -1.05 dB -27.72 dB 25:20 01-VI. Lobgesang der Engel
DR16 -18.72 dB -38.36 dB 0:56 02-VII. Rezitation
DR18 -0.68 dB -25.82 dB 15:33 03-VIII. Lobgesang des Simeon
DR14 -13.01 dB -35.64 dB 16:24 04-IX. Lobgesang der Hannah
DR12 -3.55 dB -19.75 dB 2:51 05-X. Epilog

Number of tracks: 5
Official DR value: DR16

Samplerate: 44100 Hz
Channels: 2
Bits per sample: 16
Bitrate: 448 kbps
Codec: FLAC

CD Info:

Oskar Gottlieb Blarr - Jesus-Geburt: Weihnachtsoratorium

Chor der Neanderkirche / Neandersinfonietta / Oskar Gottlieb Blarr

Label: MDG
Series: Anthologie Deutscher Musik Im Osten
Catalog#: A 3470/71
Format: 2xCD, Album
Country: Germany
Released: 1992
Genre: Classical, Sacred
Style: Contemporary, Oratory

Tracklist:

CD1:
1 I. Prolog 1:26
2 II. Verkündigung an Zacharias 16:55
3 III. Verkündigung an Maria 14:42
4 IV. Lobgesang der Maria 18:41
5 V. Lobgesang des Zacharias 20:15

CD2:
1 VI. Lobgesang der Engel 25:20
2 VII. Rezitation 0:56
3 VIII. Lobgesang des Simeon 15:33
4 IX. Lobgesang der Hannah 16:24
5 X. Epilog 2:51

Herausgeber: Institut für Ostdeutsche Musik e.V., Bergisch Gladbach

Made in Germany

"Oskar Gottlieb Blarr (* 6. Mai 1934 in Sandlack bei Bartenstein, Ostpreußen) ist ein deutscher Komponist, Organist und Kirchenmusiker.

Leben und Werk

Er studierte Komposition bei Bernd Alois Zimmermann, Milko Kelemen und anderen. Von 1961 bis 1999 war er Kirchenmusiker der Neanderkirche in Düsseldorf. Er wirkte ferner als Musikdozent am katechetischen Seminar in Düsseldorf und als Honorarprofessor für Instrumentation an der Robert-Schumann-Hochschule Düsseldorf.
Als Komponist schuf Oskar Gottlieb Blarr Oratorien, Orchesterwerke, Kammer- und Orgelmusik. Er komponierte auch zahlreiche Neue Geistliche Lieder. Viele seiner Lieder veröffentlichte er unter dem Pseudonym Choral Brother Ogo. CD-Einspielungen seiner Orgelwerke entstanden mit Wolfgang Abendroth und Martin Schmeding. Er war Mitglied der Oekumenischen Textautoren- und Komponistengruppe der Werkgemeinschaft Musik e.V. und der AG Musik in der Ev. Jugend e.V., heute Textautoren- und Komponistengruppe TAKT.
1983 widmete der israelische Komponist Josef Tal sein Orgelwerk Salva Venia Blarr, der es im darauffolgenden Jahr in Düsseldorf uraufführte. wikipedia"


Composer:

Johann Sebastian Bach

Woldemar Bargiel

Ludwig van Beethoven

Frantisek Benda

Johannes Brahms

Marcel Dupre

Johann Nepomuk Hummel

Ottorino Respighi

Franz Schubert

Robert Schumann

Performer:

BeethovenQuartet

Ben van Oosten

Berliner Vokalensemble "Carl Maria von Weber"

Consortium Classicum

Musica Alta Ripa

Neues Leipziger Streichquartett

Trio Parnassus


http://i72.fastpic.ru/big/2015/0830/51/f9b3feb2ee932473b167a0fa70dd1851.jpg


DOWNLOAD LINKS:
Buy Premium To Support Me & Get Resumable Support & Max Speed


Links are Interchangeable - No Password - Single Extraction

Oskar Gottlieb Blarr - Jesus-Geburt: Weihnachtsoratorium (1992, MDG # A 3470/71) [RE-UP] Fast Download


Ad2

 
 
 
Dear visitor, you went to the site as an unregistered user. We encourage you to register or enter the site under your name.
 
   
 
 (Votes #: 0)