2013Zone For Latest Downloads

 
     
 
Legal Downloads » Movies » Straight Outta Compton (2015) WEB-RIP XVID AC3 READNFO-MRG
Menu
Home Applications
Games Movies
Music TV Shows
Torrents Graphics

Sitemap

RSS
 
Advanced Search
Last News
Site Info
Top Contributors:
  1    supper88 32766
  2    admin 32693
  3    Whisky 10080
  4    Shark_ 8911
  5    creativelivenew 8706
  6    whathesupa 2799
  7    candymypost 840
  8    hvnteam 629
  9    vuong87 3


Articles:
  This Hour: 0
  Today: 0
  This Month: 0
  All Time: 515561


Torrents:
  Today: 0
  Yesterday: 0
  All Time: 156684


Membership:
  Registered Today :0
  This Hour:0
  This Month:0
  Total:14
  Banned:1

{online}
{inform_torrent}
Friend:
We Recomend
Trend
Trend
Ad1

Search In Site

Movies : Straight Outta Compton (2015) WEB-RIP XVID AC3 READNFO-MRG
 
http://i66.fastpic.ru/big/2015/0830/8d/f6730dfd48d2e2792b3e0840415b658d.jpg

Straight Outta Compton (2015) WEB-RIP XVID AC3 READNFO-MRG
LinkIMDb:

http://www.imdb.com/title/tt1398426/



STORYLiNE:

The group NWA emerges from the mean streets of Compton in Los Angeles, California, in the mid-1980s and revolutionizes Hip Hop culture with their music and tales about life in the hood.

INFORMATION:

Language :English
Video
ID : 0
Format : xvid
Codec ID : xvid
Duration : 2h 19mn
Bit rate : 1 473 Kbps
Width : 720 pixels
Height : 292 pixels
Display aspect ratio : 2.466
Frame rate : 25.000 fps
Bits/(Pixel*Frame) : 0.280
Stream size : 1.43 GiB (86%)

Audio
ID : 1
Format : AC-3
Format/Info : Audio Coding 3
Mode extension : CM (complete main)
Format settings, Endianness : Big
Codec ID : 2000
Duration : 2h 19mn
Bit rate mode : Constant
Bit rate : 224 Kbps
Channel(s) : 2 channels
Channel positions : Front: L R
Sampling rate : 44.1 KHz
Compression mode : Lossy
Stream size : 223 MiB (13%)
Alignment : Split accross interleaves
Interleave, duration : 40 ms (1.00 video frame)
Interleave, preload duratio : 500 ms

Genre:Biography, Drama, Music

SCREENSHOTS:
http://i65.fastpic.ru/big/2015/0830/5f/1d29da91c29fa47bfc5aa536dc638f5f.jpg


DOWNLOAD LINKS:
Buy Premium To Support Me & Get Resumable Support & Max Speed


Links are Interchangeable - No Password - Single Extraction

Straight Outta Compton (2015) WEB-RIP XVID AC3 READNFO-MRG Fast Download


Ad2

 
 
 
Dear visitor, you went to the site as an unregistered user. We encourage you to register or enter the site under your name.
 
   
 
 (Votes #: 0)