2013Zone For Latest Downloads

 
     
 
Legal Downloads » Music » VA - Download Festival Highlights Part 1 (2015) [HDTV, 1080i]
Menu
Home Applications
Games Movies
Music TV Shows
Torrents Graphics

Sitemap

RSS
 
Advanced Search
Last News
Site Info
Top Contributors:
  1    supper88 32766
  2    admin 32693
  3    Whisky 10080
  4    Shark_ 8911
  5    creativelivenew 8706
  6    whathesupa 2799
  7    candymypost 840
  8    hvnteam 629
  9    vuong87 3


Articles:
  This Hour: 0
  Today: 0
  This Month: 10
  All Time: 515561


Torrents:
  Today: 0
  Yesterday: 0
  All Time: 156684


Membership:
  Registered Today :0
  This Hour:0
  This Month:0
  Total:14
  Banned:1

{online}
{inform_torrent}
Friend:
We Recomend
Trend
Trend
Ad1

Search In Site

Music : VA - Download Festival Highlights Part 1 (2015) [HDTV, 1080i]
 
http://i66.fastpic.ru/big/2015/0830/e4/48081123d4190c6abd6b31c8179baae4.jpg

VA - Download Festival Highlights Part 1 (2015)
TS, MPEG2 Video 1920x1080 25fps 11.6 Mbps | Dolby AC3, 2 ch, 384 kbps
Heavy Metal / Rock / Punk / Alternative | 01:53:36 | ~ 10.74 Gb

~ Muse; Marilyn Manson; Black Stone Cherry; Rival State; At The Gates; Fearless Vampire Killers; Hellyeah; Clutch; Thunder; Judas Priest; Modestep; Slipknot; Lacuna Coil; Black Star Riders; Kiss ...


Download Festival at Wiki | Download Festival HomePage

***********
VA - Download Festival Highlights Part 1 (2015):

Tracklist:

Muse:
Psycho
Interwiev
Mercy

Marilyn Manson:
Personal Jesus

Black Stone Cherry:
Interwiev
Lonely Train

Rival State:
Interwiev
Sisters Of Fate

At The Gates:
Slaughter Of The Soul

Fearless Vampire Killers:
Neon In The Dance Hall

Hellyeah:
You Wouldn t Know

Clutch:
Electric Worry/One Eye Dollar
Interwiev

Thunder:
Interwiev
Black Water

Judas Priest:
Interwiev
Breaking The Law
Interwiev
Living After Midnight

Modestep:
Another Day

Slipknot:
The Devil In I
Interwiev
Duality

Five Finger Death Punch:
Interwiev
Lift Me Up

Lacuna Coil:
Nothing Stands In Our Way
Interwiev

All That Remains:
What If I Was Nothing

Corrosion Of Conformity:
Albatross

The Cadillac Three:
Peace Love & Dixie

Black Veil Brides:
Interwiev
Fallen Angel

Eagles Of Death Metal:
I Only Want You
Interwiev

Parkway Drive:
Vice Grip

Hollywood Undead:
Day Of The Dead

Black Star Riders:
Finest Hour

Mallory Knox:
Shout At The Moon

A Day To Remember:
All I Want

Blues Pills:
Devil Man

Kiss:
Black Diamond
Interwiev
Rock"N"Roll All Nite

General
ID : 1 (0x1)
Complete name : G:\UP\Mix\Download Festival Highlights Part 1 2015\Download Festival Highlights Part 1 2015 .ts
Format
: MPEG-TS
File size
: 10.2 GiB
Duration
: 1h 53mn
Overall bit rate mode : Variable
Overall bit rate : 12.8 Mbps

Video
ID : 301 (0x12D)
Menu ID
: 3103 (0xC1F)
Format
: MPEG Video
Format version : Version 2
Format profile : [email protected]
Format settings, BVOP : Yes
Format settings, Matrix : Custom
Format settings, GOP : Variable
Codec ID
: 2
Duration
: 1h 53mn
Bit rate mode : Variable
Bit rate
: 11.6 Mbps
Maximum bit rate : 24.0 Mbps
Width
: 1 920 pixels
Height
: 1 080 pixels
Display aspect ratio : 16:9
Frame rate
: 25.000 fps
Color space
: YUV
Chroma subsampling

: 4:2:0
Bit depth
: 8 bits
Scan type
: Interlaced
Scan order
: Top Field First
Compression mode : Lossy
Bits/(Pixel*Frame)

: 0.224
Time code of first frame : 00:00:00:00
Time code source : Group of pictures header
Stream size
: 9.21 GiB (91%)

Audio #1
ID : 331 (0x14B)
Menu ID
: 3103 (0xC1F)
Format
: AC-3
Format/Info
: Audio Coding 3
Mode extension : CM (complete main)
Format settings, Endianness : Big
Codec ID
: 6
Duration
: 1h 53mn
Bit rate mode : Constant
Bit rate
: 384 Kbps
Channel(s)
: 2 channels
Channel positions: Front: L R
Sampling rate : 48.0 KHz
Bit depth
: 16 bits
Compression mode : Lossy
Delay relative to video : 19ms
Stream size
: 312 MiB (3%)
Language
: English

Audio #2
ID : 332 (0x14C)
Menu ID
: 3103 (0xC1F)
Format
: MPEG Audio
Format version : Version 1
Format profile : Layer 2
Codec ID
: 3
Duration
: 1h 53mn
Bit rate mode : Constant
Bit rate
: 192 Kbps
Channel(s)
: 2 channels
Sampling rate : 48.0 KHz
Compression mode : Lossy
Stream size
: 156 MiB (1%)
Language
: English

Text
ID : 333 (0x14D)-888
Menu ID
: 3103 (0xC1F)
Format
: Teletext Subtitle
Language
: English

Menu
ID : 37 (0x25)
Menu ID
: 3103 (0xC1F)
Duration
: 1h 53mn
List
: 301 (0x12D) (MPEG Video) / 331 (0x14B) (AC-3, English) / 332 (0x14C) (MPEG Audio, English) / 333 (0x14D) ()
Language
: / English / English

http://i70.fastpic.ru/big/2015/0830/1f/1b3d33f6df83dabf3b17b3454aec951f.jpg

http://i69.fastpic.ru/big/2015/0830/0e/d629c112c9e81cec33cd8a2814458a0e.jpg

http://i67.fastpic.ru/big/2015/0830/6c/be6e62dc596b0609116b6ad65d61106c.jpg

http://i68.fastpic.ru/big/2015/0830/98/8020d26fc9494233ae27c8f0708bf498.jpg

http://i70.fastpic.ru/big/2015/0830/5e/0880a64bce77de953fd876f55520d85e.jpg

http://i71.fastpic.ru/big/2015/0830/3e/a22f78a9185ac646f6fa9479484ca43e.jpg

http://i69.fastpic.ru/big/2015/0830/b0/652b4c919f0f962071c732631d030cb0.jpg

http://i65.fastpic.ru/big/2015/0830/c6/2ed308ba0453a269aa7e7f5762e384c6.jpg

DOWNLOAD LINKS:
Buy Premium To Support Me & Get Resumable Support & Max Speed

Rapidgator.net:
pnvm0.VA.D.F.H.P.1.2015.HDTV.1080i.part01.rar.html
pnvm0.VA.D.F.H.P.1.2015.HDTV.1080i.part02.rar.html
pnvm0.VA.D.F.H.P.1.2015.HDTV.1080i.part03.rar.html
pnvm0.VA.D.F.H.P.1.2015.HDTV.1080i.part04.rar.html
pnvm0.VA.D.F.H.P.1.2015.HDTV.1080i.part05.rar.html
pnvm0.VA.D.F.H.P.1.2015.HDTV.1080i.part06.rar.html
pnvm0.VA.D.F.H.P.1.2015.HDTV.1080i.part07.rar.html
pnvm0.VA.D.F.H.P.1.2015.HDTV.1080i.part08.rar.html
pnvm0.VA.D.F.H.P.1.2015.HDTV.1080i.part09.rar.html
pnvm0.VA.D.F.H.P.1.2015.HDTV.1080i.part10.rar.html
pnvm0.VA.D.F.H.P.1.2015.HDTV.1080i.part11.rar.html
pnvm0.VA.D.F.H.P.1.2015.HDTV.1080i.part12.rar.html
pnvm0.VA.D.F.H.P.1.2015.HDTV.1080i.part13.rar.html

Uploaded.net:
pnvm0.VA.D.F.H.P.1.2015.HDTV.1080i.part01.rar
pnvm0.VA.D.F.H.P.1.2015.HDTV.1080i.part02.rar
pnvm0.VA.D.F.H.P.1.2015.HDTV.1080i.part03.rar
pnvm0.VA.D.F.H.P.1.2015.HDTV.1080i.part04.rar
pnvm0.VA.D.F.H.P.1.2015.HDTV.1080i.part05.rar
pnvm0.VA.D.F.H.P.1.2015.HDTV.1080i.part06.rar
pnvm0.VA.D.F.H.P.1.2015.HDTV.1080i.part07.rar
pnvm0.VA.D.F.H.P.1.2015.HDTV.1080i.part08.rar
pnvm0.VA.D.F.H.P.1.2015.HDTV.1080i.part09.rar
pnvm0.VA.D.F.H.P.1.2015.HDTV.1080i.part10.rar
pnvm0.VA.D.F.H.P.1.2015.HDTV.1080i.part11.rar
pnvm0.VA.D.F.H.P.1.2015.HDTV.1080i.part12.rar
pnvm0.VA.D.F.H.P.1.2015.HDTV.1080i.part13.rar

Uploadable.ch:
pnvm0.VA.D.F.H.P.1.2015.HDTV.1080i.part01.rar
pnvm0.VA.D.F.H.P.1.2015.HDTV.1080i.part02.rar
pnvm0.VA.D.F.H.P.1.2015.HDTV.1080i.part03.rar
pnvm0.VA.D.F.H.P.1.2015.HDTV.1080i.part04.rar
pnvm0.VA.D.F.H.P.1.2015.HDTV.1080i.part05.rar
pnvm0.VA.D.F.H.P.1.2015.HDTV.1080i.part06.rar
pnvm0.VA.D.F.H.P.1.2015.HDTV.1080i.part07.rar
pnvm0.VA.D.F.H.P.1.2015.HDTV.1080i.part08.rar
pnvm0.VA.D.F.H.P.1.2015.HDTV.1080i.part09.rar
pnvm0.VA.D.F.H.P.1.2015.HDTV.1080i.part10.rar
pnvm0.VA.D.F.H.P.1.2015.HDTV.1080i.part11.rar
pnvm0.VA.D.F.H.P.1.2015.HDTV.1080i.part12.rar
pnvm0.VA.D.F.H.P.1.2015.HDTV.1080i.part13.rar

Links are Interchangeable - No Password - Single Extraction

VA - Download Festival Highlights Part 1 (2015) [HDTV, 1080i] Fast Download


Ad2

 
 
 
Dear visitor, you went to the site as an unregistered user. We encourage you to register or enter the site under your name.
 
   
 
 (Votes #: 0)