2013Zone For Latest Downloads

 
     
 
Legal Downloads » Music » Al Di Meola - Tour De Force - "Live" (1982)
Menu
Home Applications
Games Movies
Music TV Shows
Torrents Graphics

Sitemap

RSS
 
Advanced Search
Last News
Site Info
Top Contributors:
  1    supper88 32766
  2    admin 32693
  3    Whisky 10080
  4    Shark_ 8911
  5    creativelivenew 8706
  6    whathesupa 2799
  7    candymypost 840
  8    hvnteam 629
  9    vuong87 3


Articles:
  This Hour: 0
  Today: 0
  This Month: 10
  All Time: 515561


Torrents:
  Today: 0
  Yesterday: 0
  All Time: 156684


Membership:
  Registered Today :0
  This Hour:0
  This Month:0
  Total:14
  Banned:1

{online}
{inform_torrent}
Friend:
We Recomend
Trend
Trend
Ad1

Search In Site

Music : Al Di Meola - Tour De Force - "Live" (1982)
 
http://i66.fastpic.ru/big/2015/0830/bd/708f33df1f6586f99e75219f9c542abd.jpg

Al Di Meola - Tour De Force - "Live" (1982)
Jazz | 1cd | EAC Rip | Ape + Cue + Log | covers
Columbia, 448217 2 | rem: 1991 | 280Mb

Recorded shortly before Al di Meola decided to de-emphasize his electric guitar in favor of his acoustic counterpart, this live set does a fine job of summing up his first six years of recordings. Four of the six numbers (all but "Nena" and "Advantage") were previously recorded by the pacesetting fusion guitarist. With strong and stimulating contributions made by keyboardist Jan Hammer, electric bassist Anthony Jackson, drummer Steve Gadd, percussionist Mingo Lewis, and second keyboardist Victor Godsey (some additional keyboards and percussion were overdubbed later in the studio), di Meola is typically stunning on such originals as "Elegant Gypsy Suite" and "Race with Devil on Spanish Highway."
~Allmusic

Track listing
01. Elegant Gypsy Suite (10:12)
02. Nena (5:08)
03. Advantage (5:03)
04. Egyptian Danza (5:43)
05. Race With Devil On Spanish Highway (7:38)
06. Cruisin' (5:29)
~ (39:14)

Personnel
- Al Di Meola - guitars
- Anthony Jackson - bass guitar
- Jan Hammer - keyboards
- Victor Godsey - keyboards
- Steve Gadd - drums and percussion
- Mingo Lewis - percussion

Exact Audio Copy V0.99 prebeta 4 from 23. January 2008

Отчёт EAC об извлечении, выполненном 29. марта 2009, 12:44

Al di Meola / Tour De Force - "Live"

Дисковод: PIONEER DVD-RW DVR-108 Adapter: 4 ID: 1

Режим чтения : Достоверность
?спользование точного потока : Да
Отключение кэ?а аудио : Да
?спользование указателей C2 : Нет

Коррекция смещения при чтении : 48
Способность читать области Lead-in и Lead-out : Нет
Заполнение пропущенных сэмплов ти?иной : Да
Удаление блоков с ти?иной в начале и конце : Нет
При вычислениях CRC использовались нулевые сэмплы : Да
?нтерфейс : Встроенный Win32-интерфейс для Win NT/2000

Выходной формат : Внутренние WAV-операции
Формат сэмплов : 44.100 Гц; 16 бит; стерео

TOC извлечённого CD Трек | Старт | Длительность | Начальный сектор | Конечный сектор

1 | 0:00.00 | 10:11.55 | 0 | 45879
2 | 10:11.55 | 5:08.35 | 45880 | 69014
3 | 15:20.15 | 5:02.65 | 69015 | 91729
4 | 20:23.05 | 5:43.37 | 91730 | 117491
5 | 26:06.42 | 7:38.25 | 117492 | 151866
6 | 33:44.67 | 5:28.70 | 151867 | 176536

Характеристики диапазона извлечения и сообщения об о?ибках

Выбранный диапазон ?мя файла J:\New Torrents\Al di Meola - Tour De Force - Live\Al di Meola - Tour De Force - Live.wav Пиковый уровень 80.8 %
Качество диапазона 100.0 %
CRC копии 7B754DCE
Копирование... OK

О?ибок не произо?ло


AccurateRip: сводка

Трек 1 точность не определена (достоверность 1) [F7A9036F], AccurateRip вернул [C86F7E16]
Трек 2 точность не определена (достоверность 1) [5CF8DC47], AccurateRip вернул [CB3620AA]
Трек 3 точность не определена (достоверность 1) [1C8F5E2D], AccurateRip вернул [343556F1]
Трек 4 точность не определена (достоверность 1) 56F4F5F, AccurateRip вернул [2A716231]
Трек 5 точность не определена (достоверность 1) [F8B6FE51], AccurateRip вернул [D9E097F1]
Трек 6 точность не определена (достоверность 1) [D0EBCD82], AccurateRip вернул [052C0D50]

Ни один трек не про?ёл проверки на точность
В ва?ей базе может быть иной вариант ?тамповки диска

Конец отчёта

[CUETools log; Date: 2015.08.25. 21:25:45; Version: 2.1.5]
[CTDB TOCID: Ikhhs4Kb.URlAqiu6yq039RI3yk-] found.
Track | CTDB Status
1 | (21/21) Accurately ripped
2 | (21/21) Accurately ripped
3 | (21/21) Accurately ripped
4 | (21/21) Accurately ripped
5 | (21/21) Accurately ripped
6 | (21/21) Accurately ripped
[AccurateRip ID: 0009f4e9-0033e1d3-41093106] found.
Track [ CRC | V2 ] Status
01 [f7a9036f|b7ba91a5] (07+08/29) Accurately ripped
02 [5cf8dc47|48893b02] (07+08/29) Accurately ripped
03 [1c8f5e2d|795e0a85] (07+08/29) Accurately ripped
04 56f4f5f|c63a027d (07+08/29) Accurately ripped
05 [f8b6fe51|cef4a7a0] (07+08/29) Accurately ripped
06 [d0ebcd82|e8bfec91] (07+08/29) Accurately ripped
Offsetted by -947:
01 [c86f7e16] (06/29) Accurately ripped
02 [cb3620aa] (06/29) Accurately ripped
03 [343556f1] (06/29) Accurately ripped
04 [2a716231] (06/29) Accurately ripped
05 [d9e097f1] (06/29) Accurately ripped
06 [052c0d50] (06/29) Accurately ripped

Track Peak [ CRC32 ] [W/O NULL]
-- 80,8 [7B754DCE] [50D2C2BF]
01 71,2 [0FF7DF54] [876CAC25]
02 60,3 [C764C791] [ED015ADD]
03 74,4 [D6C5748B] [8CCC48BF]
04 63,3 [68C9D46F] [95C92DB0]
05 80,8 [25B9CF78] [05D71700]
06 69,0 [CA67D7EF] 61EDEE8

Thx to Uncle Remus
DOWNLOAD LINKS:
Buy Premium To Support Me & Get Resumable Support & Max Speed


Links are Interchangeable - No Password - Single Extraction

Al Di Meola - Tour De Force - "Live" (1982) Fast Download


Ad2

 
 
 
Dear visitor, you went to the site as an unregistered user. We encourage you to register or enter the site under your name.
 
   
 
 (Votes #: 0)