2013Zone For Latest Downloads

 
     
 
Legal Downloads » Music » Gary Moore - Legacy (2CD, 2012) RE-UPPED
Menu
Home Applications
Games Movies
Music TV Shows
Torrents Graphics

Sitemap

RSS
 
Advanced Search
Last News
Site Info
Top Contributors:
  1    supper88 32766
  2    admin 32693
  3    Whisky 10080
  4    Shark_ 8911
  5    creativelivenew 8706
  6    whathesupa 2799
  7    candymypost 840
  8    hvnteam 629
  9    vuong87 3


Articles:
  This Hour: 0
  Today: 0
  This Month: 10
  All Time: 515561


Torrents:
  Today: 0
  Yesterday: 0
  All Time: 156684


Membership:
  Registered Today :0
  This Hour:0
  This Month:0
  Total:14
  Banned:1

{online}
{inform_torrent}
Friend:
We Recomend
Trend
Trend
Ad1

Search In Site

Music : Gary Moore - Legacy (2CD, 2012) RE-UPPED
 
http://i66.fastpic.ru/big/2015/0830/92/ba69afa6be727b54f537e53c6f1fba92.jpg

Gary Moore - Legacy (2CD, 2012)
FLAC-Tracks+CUE+LOG -> 1,03 GB | Complete Artwork | MP3 CBR 320 -> 357 MB
EAC Rip | 148:17 munutes | Label: Demon Music Group, Ltd. U.K. | Catalog Number: MCDLX-169

"Gary Moore was an all-round guitar great who made his mark on the music scene in the fields of rock, jazz and blues. This compilation majors on his Eighties classic rock and Nineties blues periods, but also includes key album tracks, duets and rarities to present a comprehensive picture of this late, great and much-missed Irish musician."

Tracklist
DISC ONE:

01. Out In The Fields
02. Ready For Love
03. Wishing Well
04. Hold On To Love
05. Military Man
06. Friday On My Mind
07. Oh Pretty Woman
08. Cold Day In Hell
09. Still Got The Blues (Single Version)
10. Story Of The Blues (Single Edit)
11. I Can't Wait Until Tomorrow
12. Beast Of Burden
13. Need Your Love So Bad (Single Edit)
14. Separate Ways
15. The Loner
16. White Knuckles (Live)

DISC TWO:

01. Over The Hills And Far Away
02. After The War
03. Rockin' Every Night
04. Rockin' And Rollin' (Live)
05. Wild Frontier
06. Since I Met You Baby
07. Too Tired
08. Walking By Myself
09. Nuclear Attack (Live)
10. Shapes Of Things To Come
11. Take A Little Time
12. Thunder Rising
13. Dark Days In Paradise
14. Burning In Our Hearts
15. Empty Rooms
16. Parisienne Walkways (Live)

Thanks to the original ripper!

Exact Audio Copy V1.0 beta 3 from 29. August 2011

EAC extraction logfile from 11. October 2012, 16:36

Gary Moore / Legacy

Used drive : HL-DT-STDVD-RAM GSA-H20N Adapter: 3 ID: 0

Read mode : Secure
Utilize accurate stream : Yes
Defeat audio cache : Yes
Make use of C2 pointers : No

Read offset correction

: 102
Overread into Lead-In and Lead-Out : No
Fill up missing offset samples with silence : Yes
Delete leading and trailing silent blocks : No
Null samples used in CRC calculations : Yes
Used interface
: Installed external ASPI interface
Gap handling
: Appended to previous track

Used output format : Internal WAV Routines
Sample format : 44.100 Hz; 16 Bit; Stereo

TOC of the extracted CD Track | Start | Length | Start sector | End sector
--1 | 0:00.00 | 4:19.40 | 0 | 19464 2 | 4:19.40 | 5:40.54 | 19465 | 45018 3 | 10:00.19 | 4:07.64 | 45019 | 63607 4 | 14:08.08 | 4:27.69 | 63608 | 83701 5 | 18:36.02 | 5:41.00 | 83702 | 109276 6 | 24:17.02 | 4:17.14 | 109277 | 128565 7 | 28:34.16 | 4:26.01 | 128566 | 148516 8 | 33:00.17 | 4:27.23 | 148517 | 168564 9 | 37:27.40 | 4:11.62 | 168565 | 187451
10 | 41:39.27 | 4:36.53 | 187452 | 208204
11 | 46:16.05 | 7:49.70 | 208205 | 243449
12 | 54:06.00 | 6:39.50 | 243450 | 273424
13 | 60:45.50 | 4:09.14 | 273425 | 292113
14 | 64:54.64 | 4:55.13 | 292114 | 314251
15 | 69:50.02 | 5:56.29 | 314252 | 340980
16 | 75:46.31 | 3:48.57 | 340981 | 358137

Track 1 Filename C:\rips\Gary Moore\Legacy\01 - Out In The Fields.wav Pre-gap length 0:00:02.00 Peak level 98.3 %
Extraction speed 1.8 X
Track quality 100.0 %
Test CRC 9CADAEDF
Copy CRC 9CADAEDF
Track not present in AccurateRip database
Copy OK

Track 2 Filename C:\rips\Gary Moore\Legacy\02 - Ready For Love.wav Pre-gap length 0:00:01.60 Peak level 93.3 %
Extraction speed 2.0 X
Track quality 100.0 %
Test CRC 5CF49C5E
Copy CRC 5CF49C5E
Track not present in AccurateRip database
Copy OK

Track 3 Filename C:\rips\Gary Moore\Legacy\03 - Wishing Well.wav Pre-gap length 0:00:01.60 Peak level 99.4 %
Extraction speed 2.1 X
Track quality 100.0 %
Test CRC 5451E378
Copy CRC 5451E378
Track not present in AccurateRip database
Copy OK

Track 4 Filename C:\rips\Gary Moore\Legacy\04 - Hold On To Love.wav Pre-gap length 0:00:01.60 Peak level 99.4 %
Extraction speed 2.1 X
Track quality 99.9 %
Test CRC 4B6C2C6F
Copy CRC 4B6C2C6F
Track not present in AccurateRip database
Copy OK

Track 5 Filename C:\rips\Gary Moore\Legacy\05 - Military Man.wav Pre-gap length 0:00:01.60 Peak level 94.4 %
Extraction speed 2.5 X
Track quality 100.0 %
Test CRC AC6EC107
Copy CRC AC6EC107
Track not present in AccurateRip database
Copy OK

Track 6 Filename C:\rips\Gary Moore\Legacy\06 - Friday On My Mind.wav Pre-gap length 0:00:01.60 Peak level 96.9 %
Extraction speed 2.6 X
Track quality 100.0 %
Test CRC 489CC957
Copy CRC 489CC957
Track not present in AccurateRip database
Copy OK

Track 7 Filename C:\rips\Gary Moore\Legacy\07 - Oh Pretty Woman.wav Pre-gap length 0:00:01.60 Peak level 98.1 %
Extraction speed 2.7 X
Track quality 100.0 %
Test CRC 44935B4F
Copy CRC 44935B4F
Track not present in AccurateRip database
Copy OK

Track 8 Filename C:\rips\Gary Moore\Legacy\08 - Cold Day In Hell.wav Pre-gap length 0:00:01.60 Peak level 99.4 %
Extraction speed 2.9 X
Track quality 100.0 %
Test CRC 46612466
Copy CRC 46612466
Track not present in AccurateRip database
Copy OK

Track 9 Filename C:\rips\Gary Moore\Legacy\09 - Still Got The Blues (Single Version).wav Pre-gap length 0:00:01.60 Peak level 99.4 %
Extraction speed 2.9 X
Track quality 100.0 %
Test CRC 2D041B57
Copy CRC 2D041B57
Track not present in AccurateRip database
Copy OK

Track 10 Filename C:\rips\Gary Moore\Legacy\10 - Story Of The Blues (Single Edit).wav Pre-gap length 0:00:01.60 Peak level 82.2 %
Extraction speed 3.1 X
Track quality 100.0 %
Test CRC A4CE15E5
Copy CRC A4CE15E5
Track not present in AccurateRip database
Copy OK

Track 11 Filename C:\rips\Gary Moore\Legacy\11 - I Can't Wait Until Tomorrow.wav Pre-gap length 0:00:01.60 Peak level 93.3 %
Extraction speed 3.5 X
Track quality 100.0 %
Test CRC F83EBA69
Copy CRC F83EBA69
Track not present in AccurateRip database
Copy OK

Track 12 Filename C:\rips\Gary Moore\Legacy\12 - Beast Of Burden.wav Pre-gap length 0:00:01.60 Peak level 85.0 %
Extraction speed 3.6 X
Track quality 100.0 %
Test CRC 2D8B887E
Copy CRC 2D8B887E
Track not present in AccurateRip database
Copy OK

Track 13 Filename C:\rips\Gary Moore\Legacy\13 - Need Your Love So Bad (Single Edit).wav Pre-gap length 0:00:01.60 Peak level 91.9 %
Extraction speed 3.5 X
Track quality 100.0 %
Test CRC 2EE79E04
Copy CRC 2EE79E04
Track not present in AccurateRip database
Copy OK

Track 14 Filename C:\rips\Gary Moore\Legacy\14 - Separate Ways.wav Pre-gap length 0:00:01.60 Peak level 99.4 %
Extraction speed 3.6 X
Track quality 100.0 %
Test CRC 7BE7040A
Copy CRC 7BE7040A
Track not present in AccurateRip database
Copy OK

Track 15 Filename C:\rips\Gary Moore\Legacy\15 - The Loner.wav Pre-gap length 0:00:01.60 Peak level 98.8 %
Extraction speed 3.8 X
Track quality 100.0 %
Test CRC 953DABC9
Copy CRC 953DABC9
Track not present in AccurateRip database
Copy OK

Track 16 Filename C:\rips\Gary Moore\Legacy\16 - White Knuckles (Live).wav Pre-gap length 0:00:01.60 Peak level 90.7 %
Extraction speed 3.3 X
Track quality 99.9 %
Test CRC 50F46C4B
Copy CRC 50F46C4B
Track not present in AccurateRip database
Copy OK

None of the tracks are present in the AccurateRip database

No errors occurred

End of status report

==== Log checksum 930CDDF9975641478784F333E81D7251526C0897B3B1B08A4281161A2A807675 ====

Exact Audio Copy V1.0 beta 3 from 29. August 2011

EAC extraction logfile from 19. October 2012, 18:40

Gary Moore / Legacy

Used drive : HL-DT-STDVD-RAM GSA-H20N Adapter: 3 ID: 0

Read mode : Secure
Utilize accurate stream : Yes
Defeat audio cache : Yes
Make use of C2 pointers : No

Read offset correction

: 102
Overread into Lead-In and Lead-Out : No
Fill up missing offset samples with silence : Yes
Delete leading and trailing silent blocks : No
Null samples used in CRC calculations : Yes
Used interface
: Installed external ASPI interface
Gap handling
: Appended to previous track

Used output format : Internal WAV Routines
Sample format : 44.100 Hz; 16 Bit; Stereo

TOC of the extracted CD Track | Start | Length | Start sector | End sector
--1 | 0:00.00 | 5:24.27 | 0 | 24326 2 | 5:24.27 | 4:20.13 | 24327 | 43839 3 | 9:44.40 | 2:49.33 | 43840 | 56547 4 | 12:33.73 | 4:07.22 | 56548 | 75094 5 | 16:41.20 | 4:16.51 | 75095 | 94345 6 | 20:57.71 | 2:52.50 | 94346 | 107295 7 | 23:50.46 | 2:52.29 | 107296 | 120224 8 | 26:43.00 | 2:57.44 | 120225 | 133543 9 | 29:40.44 | 6:00.42 | 133544 | 160585
10 | 35:41.11 | 4:15.07 | 160586 | 179717
11 | 39:56.18 | 4:07.18 | 179718 | 198260
12 | 44:03.36 | 5:44.02 | 198261 | 224062
13 | 49:47.38 | 3:29.02 | 224063 | 239739
14 | 53:16.40 | 6:03.19 | 239740 | 266983
15 | 59:19.59 | 4:17.34 | 266984 | 286292
16 | 63:37.18 | 5:04.09 | 286293 | 309101

Track 1 Filename C:\rips\Gary Moore\Legacy\01 - Over The Hills And Far Away.wav Pre-gap length 0:00:02.00 Peak level 90.9 %
Extraction speed 1.6 X
Track quality 99.9 %
Test CRC 91870D88
Copy CRC 91870D88
Track not present in AccurateRip database
Copy OK

Track 2 Filename C:\rips\Gary Moore\Legacy\02 - After The War.wav Pre-gap length 0:00:01.60 Peak level 99.1 %
Extraction speed 1.9 X
Track quality 100.0 %
Test CRC 86257D3B
Copy CRC 86257D3B
Track not present in AccurateRip database
Copy OK

Track 3 Filename C:\rips\Gary Moore\Legacy\03 - Rockin' Every Night.wav Pre-gap length 0:00:01.60 Peak level 95.5 %
Extraction speed 1.8 X
Track quality 100.0 %
Test CRC 769354CE
Copy CRC 769354CE
Track not present in AccurateRip database
Copy OK

Track 4 Filename C:\rips\Gary Moore\Legacy\04 - Rockin' And Rollin' (Live).wav Pre-gap length 0:00:01.60 Peak level 89.1 %
Extraction speed 1.9 X
Track quality 99.9 %
Test CRC 1A8EDD17
Copy CRC 1A8EDD17
Track not present in AccurateRip database
Copy OK

Track 5 Filename C:\rips\Gary Moore\Legacy\05 - Wild Frontier.wav Pre-gap length 0:00:01.56 Peak level 99.4 %
Extraction speed 2.2 X
Track quality 100.0 %
Test CRC 6C550215
Copy CRC 6C550215
Track not present in AccurateRip database
Copy OK

Track 6 Filename C:\rips\Gary Moore\Legacy\06 - Since I Met You Baby.wav Pre-gap length 0:00:01.60 Peak level 99.4 %
Extraction speed 2.2 X
Track quality 100.0 %
Test CRC 5BDD1BF8
Copy CRC 5BDD1BF8
Track not present in AccurateRip database
Copy OK

Track 7 Filename C:\rips\Gary Moore\Legacy\07 - Too Tired.wav Pre-gap length 0:00:01.60 Peak level 98.6 %
Extraction speed 2.3 X
Track quality 100.0 %
Test CRC 08B5B227
Copy CRC 08B5B227
Track not present in AccurateRip database
Copy OK

Track 8 Filename C:\rips\Gary Moore\Legacy\08 - Walking By Myself.wav Pre-gap length 0:00:01.60 Peak level 99.4 %
Extraction speed 2.0 X
Track quality 99.9 %
Test CRC 6A8B30E3
Copy CRC 6A8B30E3
Track not present in AccurateRip database
Copy OK

Track 9 Filename C:\rips\Gary Moore\Legacy\09 - Nuclear Attack (Live).wav Pre-gap length 0:00:01.60 Peak level 99.4 %
Extraction speed 2.5 X
Track quality 99.9 %
Test CRC 4999EA15
Copy CRC 4999EA15
Track not present in AccurateRip database
Copy OK

Track 10 Filename C:\rips\Gary Moore\Legacy\10 - Shapes Of Things To Come.wav Pre-gap length 0:00:01.60 Peak level 89.1 %
Extraction speed 2.8 X
Track quality 100.0 %
Test CRC 1BA406DB
Copy CRC 1BA406DB
Track not present in AccurateRip database
Copy OK

Track 11 Filename C:\rips\Gary Moore\Legacy\11 - Take A Little Time.wav Pre-gap length 0:00:01.59 Peak level 99.4 %
Extraction speed 2.8 X
Track quality 100.0 %
Test CRC EBDA2735
Copy CRC EBDA2735
Track not present in AccurateRip database
Copy OK

Track 12 Filename C:\rips\Gary Moore\Legacy\12 - Thunder Rising.wav Pre-gap length 0:00:01.60 Peak level 97.3 %
Extraction speed 3.2 X
Track quality 100.0 %
Test CRC 54BAF7F7
Copy CRC 54BAF7F7
Track not present in AccurateRip database
Copy OK

Track 13 Filename C:\rips\Gary Moore\Legacy\13 - Dark Days In Paradise.wav Pre-gap length 0:00:01.60 Peak level 99.4 %
Extraction speed 3.1 X
Track quality 100.0 %
Test CRC 0EA1B8D2
Copy CRC 0EA1B8D2
Track not present in AccurateRip database
Copy OK

Track 14 Filename C:\rips\Gary Moore\Legacy\14 - Burning In Our Hearts.wav Pre-gap length 0:00:01.60 Peak level 86.4 %
Extraction speed 3.4 X
Track quality 100.0 %
Test CRC 1A2AE231
Copy CRC 1A2AE231
Track not present in AccurateRip database
Copy OK

Track 15 Filename C:\rips\Gary Moore\Legacy\15 - Empty Rooms.wav Pre-gap length 0:00:01.60 Peak level 99.4 %
Extraction speed 3.3 X
Track quality 100.0 %
Test CRC 6B6E8BCF
Copy CRC 6B6E8BCF
Track not present in AccurateRip database
Copy OK

Track 16 Filename C:\rips\Gary Moore\Legacy\16 - Parisienne Walkways (Live).wav Pre-gap length 0:00:01.60 Peak level 99.4 %
Extraction speed 3.1 X
Track quality 99.9 %
Test CRC AD90C6DC
Copy CRC AD90C6DC
Track not present in AccurateRip database
Copy OK

None of the tracks are present in the AccurateRip database

No errors occurred

End of status report

==== Log checksum 37A648956C2A6DDA5037DF3EE9302B58D30AA7FA0D5E48BD1DC7FB9488138385 ====
DOWNLOAD LINKS:
Buy Premium To Support Me & Get Resumable Support & Max Speed


Links are Interchangeable - No Password - Single Extraction

Gary Moore - Legacy (2CD, 2012) RE-UPPED Fast Download


Ad2

 
 
 
Dear visitor, you went to the site as an unregistered user. We encourage you to register or enter the site under your name.
 
   
 
 (Votes #: 0)