2013Zone For Latest Downloads

 
     
 
Legal Downloads » Music » Billie Holiday - The Complete Billie Holiday On Verve 1945-1959 (1992) [10CD Box Set] {Verve-PolyGram}
Menu
Home Applications
Games Movies
Music TV Shows
Torrents Graphics

Sitemap

RSS
 
Advanced Search
Last News
Site Info
Top Contributors:
  1    supper88 32766
  2    admin 32693
  3    Whisky 10080
  4    Shark_ 8911
  5    creativelivenew 8706
  6    whathesupa 2799
  7    candymypost 840
  8    hvnteam 629
  9    vuong87 3


Articles:
  This Hour: 0
  Today: 0
  This Month: 10
  All Time: 515561


Torrents:
  Today: 0
  Yesterday: 0
  All Time: 156684


Membership:
  Registered Today :0
  This Hour:0
  This Month:0
  Total:14
  Banned:1

{online}
{inform_torrent}
Friend:
We Recomend
Trend
Trend
Ad1

Search In Site

Music : Billie Holiday - The Complete Billie Holiday On Verve 1945-1959 (1992) [10CD Box Set] {Verve-PolyGram}
 

http://i68.fastpic.ru/big/2015/0830/1f/b0cdc612ba6a575a47026c396444a11f.jpg
Billie Holiday - The Complete Billie Holiday On Verve 1945-1959 (1992) [10CD Box Set] {Verve-PolyGram}
EAC rip (secure mode) | FLAC (tracks)+CUE+LOG -> 2.63 Gb | MP3 @320 -> 1.66 Gb
Full Artwork @ 600 dpi (jpg) -> 526 Mb | 5% repair rar
© 1992 Verve / PolyGram | 517 658-2
Jazz / Vocal Jazz / Swing / Classic Female Blues / Traditional Pop

"This is a rather incredible collection: ten CDs enclosed in a tight black box that includes every one of the recordings Verve owns of Billie Holiday, not only the many studio recordings of 1952-57 (which feature Lady Day joined by such jazz all-stars as trumpeters Charlie Shavers and Harry "Sweets" Edison, altoist Benny Carter, and the tenors of Flip Phillips, Paul Quinichette and Ben Webster). Also included are prime performances at Jazz at the Philharmonic concerts in 1945-1947, an enjoyable European gig from 1954, her "comeback" Carnegie Hall concert of 1956, Holiday's rather sad final studio album from 1959, and even lengthy tapes from two informal rehearsals. It's a perfect purchase for the true Billie Holiday fanatic."

http://i70.fastpic.ru/big/2015/0830/2d/c96e4330b4689aa13a0a3401f5d9ec2d.jpg

"Includes a 220-page book with liner notes, photographs, reproductions of Billie Holiday's Verve album covers, and extensive interviews with Oscar Peterson, Jimmy Rowles, Harry "Sweets" Edison and Barney Kessel.
Of 10 CDs contained in the set, 8 are of studio and concert recordings, including her Carnegie Hall debut concert, Jazz At The Philharmonic recordings, Lady Day's last recording session, and 2 unissued alternate takes. The other 2 CDs contain rehearsal sessions."


http://i66.fastpic.ru/big/2015/0830/7b/6402e5fc633fa0b796a6cc813064407b.jpg

"That's right: Ten CDs with everything Billie Holiday recorded on Verve Records between 1945 and her death in 1959--not only the songs, but concert introductions, some of the rehearsals, and between-take studio chatter, too. All of which makes for a definitive portrait of Lady Day in her final years. For a long time these recordings were disparaged because it was said her voice was no longer fine and mellow, "ravaged" by hard living, jail time, booze, and drugs. And there's no question that her later tone is darker, more brittle and unstable than it had been in the '30s--but somehow I find myself listening to this music more often than those Brunswick/Columbia or Decca sides, anyway. Like Frank Sinatra, who so often paid tribute to her influence, Holiday's artistry was never based on virtuosity; it was about interpretation, bringing out the emotions in a song and giving a personal reading. She never stopped doing that, and for all the "strange fruit" you'll find in this collection, it's a gold mine."


http://i72.fastpic.ru/big/2015/0830/96/c24418f32f9688b0bb90053ba49e3f96.jpg

"Of the 10 CDs contained in the set, 8 are comprised of studio and concert recordings, including the debut Carnegie Hall concert, the Jazz At The Philharmonic recordings, Lady Day's last recording session, and 2 unissued alternate takes. The other 2 CDs contain rehearsal sessions.
Very few contemporary artists are worthy of exhaustive, multiple-CD retrospectives, but the jazz legend Billie Holiday certainly makes the cut. This 10-CD set, with a hard-bound, lavishly photographed accompanying book, is a must for serious fans of Lady Day and those with a deep interest in the history of classic jazz. While some buffs contend that it was Holiday's earlier recordings for Columbia and Decca that were her best, many aficionados find her final recordings during the Verve years to be her richest, most mature and most poignant work. At this point, the heartache in her voice was nearly palpable. The collection--with its multiple takes, rehearsal recordings, transcripts of conversations, interviews with collaborators, live recordings and more--has enough music and history to keep Holiday fans engrossed for years to come.
By the mid-1940s, Holiday's many vices had culminated into full-blown heroin addiction, and her voice--the unique instrument that made her a legend--was beginning to suffer along with her weakened body. But Verve's fine roster of legendary jazzmen--both up-and-comers like Barney Kessel and Oscar Peterson, and aging masters like Ben Webster--bolstered her singing with their sympathetic and masterly accompaniment.JazzTimes (3/93, p.58) - "...illie Holiday had innate musicianship that surpassed technique and it maintained her art even as her voice and her life deteriorated. In her late career, when she seemed to be operating only on existential pain, she produced singing that reaches the deepest levels of human emotional response...""


http://i67.fastpic.ru/big/2015/0830/0c/b1b54efd48d605651b6d2962d0ac570c.jpg


Personnel includes:
Billie Holiday (vocals)
Willie Smith, Benny Carter (alto saxophone)
Illinois Jacquet, Wardell Gray, Charlie Ventura, Coleman Hawkins, Lester Young, Flip Phillips (tenor saxophone)
Howard McGee, Buck Clayton, Charlie Shavers, Harry "Sweets" Edison, Roy Eldridge (trumpet)
Trummy Young (trombone)
Red Norvo (vibraphone)
Milt Raskin, Ken Kersey, Oscar Peterson, Sonny Clark, Billy Taylor, Jimmy Rowles, Wynton Kelly, Tony Scott, Mal Waldron (piano)
Freddie Green (guitar)
Tiny Grimes, Barney Kessel, Herb Ellis (electric guitar)
Charles Mingus, Curly Russell, Al McKibbon, Ray Brown, Red Mitchell, Milt Hinton, Joe Benjamin (bass)
David Coleman, J.C. Heard, Alvin Stoller, Ed Shaughnessy, Cozy Cole, Jo Jones (drums).

Producers include:
Norman Granz, Ray Ellis, Leonard Feather, Leroy Lovett, Tony Scott.

Compilation producer: Phil Schaap.
Includes liner notes by Buck Clayton, Phil Schaap, Bob Porter, and Joel E. Siegel.

Digitally remastered by Thomas "Curly" Ruff, Suha Gur, Andrew Nicholas, Joseph M.Palmaccio, Patrick Ryan (Polygram Studios).

"THE COMPLETE BILLIE HOLIDAY ON VERVE, 1945-1959 won the 1994 Grammy Award for "Recording Package," "Album Notes" and "Historical Album.""


http://i65.fastpic.ru/big/2015/0830/ab/aa3f3898a64d2bea18b976c48d59f4ab.jpg


Track List:

Disc 1:
Jazz at the Philharmonic Concerts 1945-1947, 1952 Los Angeles Studio Session


01. Body And Soul [0:03:24.10]
02. Strange Fruit [0:03:01.13]
03. I Cried For You [0:02:18.09]
04. Fine And Mellow [0:03:50.70]
05. He's Funny That Way [0:03:21.89]
06. The Man I Love [0:03:04.04]
07. Gee Baby, Ain't I Good To You [0:02:19.86]
08. All Of Me [0:01:55.73]
09. Billie's Blues (aka 'I Love My Man' ) [0:03:39.00]
10. Travelin' Light [0:03:28.42]
11. He's Funny That Way [0:02:56.33]
12. Norman Granz Announcement #1 [0:00:09.10]
13. You Better Go Now [0:02:55.73]
14. You're Driving Me Crazy [0:01:29.89]
15. There Is No Greater Love [0:02:34.00]
16. I Cover The Waterfront [0:02:58.20]
17. Norma Granz Announcement #2 [0:00:28.50]
18. East Of The Sun [0:02:56.33]
19. Blue Moon [0:03:31.00]
20. You Go To My Head [0:02:56.56]
21. You Turned The Tables On Me [0:03:28.30]
22. Easy To Love [0:03:01.69]
23. These Foolish Things [0:03:35.46]
24. I Only Have Eyes For You [0:02:54.24]
25. Solitude [0:03:28.93]

http://i69.fastpic.ru/big/2015/0830/2b/68a03f3b25fa42047006a42bc630502b.jpg


Disc 2:
1952 Los Angeles & New York Studio Sessions, 1954 Jazz Club USA Concert - Germany


01. Everything I Have Is Yours [0:03:45.44]
02. Love For Sale [0:02:58.62]
03. Moonglow [0:03:00.30]
04. Tenderly [0:03:25.09]
05. If The Moon Turns Green [0:02:46.50]
06. Remember [0:02:36.82]
07. Autumn In New York (Common Take - LP) [0:03:42.60]
08. Autumn In New York (Rare Take - 78) [0:03:56.44]
09. My Man [0:02:39.06]
10. Lover, Come Back To Me [0:03:37.00]
11. Stormy Weather [0:03:43.16]
12. Yesterdays [0:02:50.44]
13. He's Funny That Way [0:03:13.66]
14. I Can't Face The Music [0:03:18.86]
15. MC And Leonard Feather Announcements [0:00:47.93]
16. Blue Moon [0:02:05.36]
17. All Of Me [0:01:43.40]
18. My Man [0:02:51.57]
19. Them There Eyes [0:01:40.49]
20. I Cried For You [0:03:23.10]
21. What A Little Moonlight Can Do [0:02:40.89]
22. I Cover The Waterfront [0:03:17.00]
23. Leonard Feather Announcement [0:00:21.00]
24. Billie's Blues (aka 'I Love My Man' ) [0:11:39.33]

Disc 3:
1954 Jazz Club USA Concert (conclusion), 1954 Los Angeles & New York Studio Sessions, 1955 New York Studio Session


01. Lover, Come Back To Me [0:06:51.17]
02. How Deep Is The Ocean [0:02:58.76]
03. What A Little Moonlight Can Do [0:03:12.24]
04. I Cried For You [0:02:30.93]
05. Love Me Or Leave Me [0:02:35.00]
06. P.S. I Love You [0:03:37.00]
07. Too Marvelous For Words [0:02:13.22]
08. Softly [0:02:56.90]
09. I Thought About You [0:02:47.89]
10. Willow Weep For Me [0:03:07.77]
11. Stormy Blues [0:03:30.62]
12. Say It Isn't So [0:03:03.86]
13. I've Got My Love To Keep Me Warm [0:03:57.73]
14. I Wished On The Moon [0:06:49.70]
15. Always [0:03:58.93]
16. Everything Happens To Me [0:06:22.42]
17. Do Nothing Till You Hear From Me [0:05:00.90]
18. Ain't Misbehavin' [0:04:39.00]

http://i66.fastpic.ru/big/2015/0830/4d/091b384ed30ba9284789990795bf244d.jpg


Disc 4:
1955 Rehearsal at Artie Shapiro's Home


01. Nice Work If You Can Get It [0:04:05.40]
02. Discussion; Nice Work If You Can Get It [0:00:40.93]
03. Mandy Is Two [0:04:32.06]
04. Prelude To A Kiss [0:02:47.60]
05. I Must Have That Man! [0:01:05.50]
06. Jeepers Creepers #1 [0:02:13.29]
07. Jeepers Creepers #2 [0:00:50.97]
08. Discussion; Jeepers Creepers #1 [0:03:25.06]
09. Discussion; Jeepers Creepers #2 [0:02:28.22]
10. Please Don't Talk About Me When I'm Gone #1 [0:01:57.46]
11. Please Don't Talk About Me When I'm Gone #2 [0:02:57.50]
12. Discussion; Moonlight In Vermont [0:00:52.42]
13. Misery [0:00:35.90]
14. Restless [0:02:45.00]
15. Moonlight In Vermont [0:02:01.66]
16. Everything Happens To Me #1 [0:03:26.49]
17. Discussion #1 [0:00:36.64]
18. I Don't Want To Cry Any More #1 [0:04:25.16]
19. I Don't Want To Cry Any More #2 [0:02:26.93]
20. Discussion; I Don't Want To Cry Any More [0:05:33.97]
21. Everything Happens To Me #2 [0:02:59.62]
22. Discussion #2 [0:01:48.86]
23. When You Are Away, Dear [0:01:40.57]
24. Discussion #3 [0:00:49.06]
25. It Had To Be You [0:01:55.89]
26. The Mood That I'm In [0:00:32.20]
27. Gone With The Wind [0:01:38.04]
28. I Got It Bad (And That Ain't Good) [0:03:17.13]
29. Discussion #4 [0:02:30.86]
30. A Sunbonnet Blue [0:00:07.42]
31. (I Don't Stand A) Ghost Of A Chance [0:01:32.64]
32. Discussion #5 [0:02:15.26]
33. I'm Walkin' Through Heaven With You [0:02:06.29]
34. Discussion #6 [0:00:41.93]
35. Just Friends [0:01:02.10]
36. The Nearness Of You [0:01:05.69]
37. Discussion #7 [0:00:27.20]
38. It's Too Hot For Words [0:00:20.70]
39. They Say [0:02:26.22]
40. I Won't Believe It [0:00:20.33]

http://i68.fastpic.ru/big/2015/0830/10/0e332f9a20a1d9f81b6e544d46a5bd10.jpg


Disc 5:
1955 Los Angeles Studio Sessions


01. I Don't Want To Cry Any More (take 1 - false start) [0:00:31.76]
02. I Don't Want To Cry Any More (take 2 - master take) [0:03:55.46]
03. Studio Talk; Prelude To A Kiss (take 1 - false start) [0:00:14.24]
04. Studio Talk; Prelude To A Kiss (take 2 - incomplete) [0:00:52.26]
05. Prelude To A Kiss (take 3 - master take) [0:05:35.02]
06. (I Don't Stand A) Ghost Of A Chance [0:04:29.00]
07. When Your Lover Has Gone (take 1 - incomplete) [0:00:49.57]
08. Studio Talk; When Your Lover Has Gone (take 2 - incomplete) [0:01:01.02]
09. Studio Talk #1 [0:00:24.04]
10. When Your Lover Has Gone (take 3 - master take) [0:04:58.93]
11. Gone With The Wind [0:03:26.06]
12. Studio Talk #2 [0:00:10.46]
13. Please Don't Talk About Me When I'm Gone [0:04:21.00]
14. It Had To Be You [0:04:02.20]
15. Studio Talk #3 [0:00:08.40]
16. Nice Work If You Can Get It [0:03:51.13]
17. Come Rain Or Come Shine [0:04:23.86]
18. I Got A Right To Sing The Blues [0:05:53.29]
19. What's New [0:04:17.64]
20. A Fine Romance (take 1 - incomplete) [0:00:46.56]
21. A Fine Romance (take 2 - alternate) [0:02:44.73]
22. A Fine Romance (take 3 - false start) [0:00:18.37]
23. A Fine Romance (take 4 - incomplete) [0:01:16.42]
24. A Fine Romance (take 5 - incomplete) [0:03:18.77]
25. A Fine Romance (take 6 - false start) [0:00:25.69]
26. A Fine Romance (take 7 - incomplete) [0:03:12.77]
27. A Fine Romance (take 8 - master take) [0:03:35.13]
28. Studio Talk #4 [0:00:06.09]
29. I Hadn't Anyone Till You [0:04:02.53]

http://i65.fastpic.ru/big/2015/0830/c1/2dbc0c3878c1c18d67b3f4f24cdd92c1.jpg


Disc 6:
1955 Los Angeles Studio Session (Conclusion), 1956 Rehearsal at the Duftys' Home


01. I Get A Kick Out Of You [0:05:42.33]
02. Everything I Have Is Yours [0:04:31.90]
03. Isn't This A Lovely Day [0:04:16.49]
04. Discussion; Misery [0:01:26.37]
05. Israel [0:02:17.82]
06. Misery [0:04:38.50]
07. Discussion #1 [0:01:15.56]
08. I Must Have That Man! [0:06:30.46]
09. Discussion #2 [0:00:27.60]
10. Strange Fruit [0:05:48.10]
11. Discussion; God Bless The Child [0:05:50.49]
12. Discussion #3 [0:01:16.13]
13. God Bless The Child #1 [0:03:16.33]
14. God Bless The Child #2 [0:01:07.70]
15. Discussion #4 [0:00:33.56]
16. God Bless The Child #3 [0:03:35.70]
17. One Never Knows, Does One #1 [0:02:08.49]
18. Discussion #5 [0:01:59.93]
19. Beer Barrel Polka (Aka 'Roll Out The Barrel' ) [0:01:19.30]
20. Some Of These Days [0:01:02.89]
21. A Yiddishe Momme #1 [0:00:38.77]
22. A Yiddishe Momme #2 [0:02:16.16]
23. Discussion #6 [0:00:41.73]
24. Lady's Back In Town [0:02:36.40]
25. Discussion #7 [0:04:34.04]
26. Discussion #8 [0:01:13.02]
27. One Never Knows, Does One #2 [0:02:38.64]
28. Discussion #9 [0:01:19.09]
29. (Unknown Title) [0:01:53.84]

http://i66.fastpic.ru/big/2015/0830/49/34c2059d5e88d63b8a565e150b9f3349.jpg


Disc 7:
1956 New York & Los Angeles Studio Sessions


01. Travelin' Light [0:03:10.46]
02. I Must Have That Man! [0:03:06.36]
03. Some Other Spring [0:03:39.17]
04. Lady Sings The Blues [0:03:46.22]
05. Strange Fruit [0:03:04.17]
06. God Bless The Child [0:03:59.60]
07. Good Morning Heartache [0:03:31.82]
08. No Good Man [0:03:23.00]
09. Do Nothing Till You Hear From Me [0:04:14.73]
10. Cheek To Cheek [0:03:37.46]
11. Ill Wind [0:06:17.13]
12. Speak Low [0:04:29.37]
13. We'll Be Together Again [0:04:26.60]
14. All Or Nothing At All [0:05:41.36]
15. Sophisticated Lady [0:04:51.06]
16. April In Paris [0:03:02.60]

http://i68.fastpic.ru/big/2015/0830/78/bdb04c7df8c41b459ab11d2a62ef5878.jpg


Disc 8:
1956 Carnegie Hall Concert, 1957 Los Angeles Studio Sessions


01. Lady Sings The Blues (with reading from 'Lady Sings The Blues' ) [0:02:52.60]
02. Lady Sings The Blues [0:02:38.10]
03. Ain't Nobody's Business If I Do [0:02:33.33]
04. Travelin' Light (with reading from 'Lady Sings The Blues' ) [0:00:44.46]
05. Reading From 'Lady Sings The Blues' #1 [0:02:06.26]
06. Billie's Blues (aka 'I Love My Man' ) [0:03:20.20]
07. Body and Soul [0:02:40.40]
08. Reading From 'Lady Sings The Blues' #2 [0:00:54.89]
09. Don't Explain [0:02:29.86]
10. Yesterdays [0:01:16.00]
11. Please Don't Talk About Me When I'm Gone [0:01:42.73]
12. I'll Be Seeing You [0:02:28.24]
13. Reading From 'Lady Sings The Blues' #3 [0:02:50.40]
14. My Man [0:03:13.40]
15. I Cried For You [0:03:08.73]
16. Fine and Mellow [0:03:14.73]
17. I Cover The Waterfront [0:03:45.76]
18. What a Little Moonlight Can Do [0:02:53.60]
19. I Wished on The Moon [0:03:27.86]
20. Moonlight In Vermont [0:03:52.77]
21. A Foggy Day (stereo) [0:04:43.82]
22. I Didn't Know What Time It Was (stereo) [0:06:01.93]
23. Just One Of Those Things (take 7 - incomplete) (stereo) [0:00:25.40]
24. Studio Talk #1 [0:00:47.13]
25. Just One Of Those Things (take 8 - master take) [0:05:32.04]
26. Studio Talk #2 [0:00:28.86]
27. Comes Love (take 1 - alternate) [0:04:00.09]
28. Comes Love (take 2 - false start) [0:00:36.00]
29. Comes Love (take 3 - false start) [0:00:22.37]
30. Comes Love (take 4 - master take) [0:03:59.96]

Disc 9:
1957 Los Angeles Studio Sessions


01. Day In, Day Out (stereo) [0:06:49.40]
02. Darn That Dream [0:06:20.30]
03. But Not For Me [0:03:50.73]
04. Body And Soul [0:06:26.02]
05. Studio Talk #1 [0:00:44.93]
06. Just Friends (instrumental) [0:06:30.10]
07. Studio Talk #2 [0:00:16.33]
08. Stars Fell On Alabama (take 1 - incomplete) [0:00:37.80]
09. Stars Fell On Alabama (take 2 - master take) (stereo) [0:04:30.09]
10. Studio Talk; Say It Isn't So (take 1 - incomplete) [0:00:26.17]
11. Say It Isn't So (take 2 - master take) [0:03:18.49]
12. Studio Talk; Our Love Is Here To Stay (take 1 - false start) [0:00:27.57]
13. Our Love Is Here To Stay (take 2 - master take) [0:03:42.62]
14. Studio Talk; One For My Baby (And One More For The Road) (take 1 - false start) [0:00:27.86]
15. One For My Baby (And One More For The Road) (take 2 - incomplete) [0:01:55.86]
16. One For My Baby (And One More For The Road) (take 3 - master take) (stereo) [0:05:42.30]
17. They Can't Take That Away From Me [0:04:12.22]
18. Embraceable You [0:06:49.20]
19. Let's Call The Whole Thing Off [0:03:26.40]
20. Gee Baby, Ain't I Good To You [0:05:37.53]

http://i68.fastpic.ru/big/2015/0830/75/1be6f58fa0b2e1c9b58fc23bec4ac575.jpg


Disc 10:
1957 Newport Jazz Festival, 1958 Seven Ages of Jazz Concert, 1959 New York Studio Sessions with Ray Ellis


01. Willis Conover Announcement [0:00:53.76]
02. Johnny Mercer Announcement [0:00:42.00]
03. Fanfare From Oh, Lady Be Good [0:00:10.90]
04. Nice Work If You Can Get It [0:02:38.73]
05. Willow Weep For Me [0:03:08.26]
06. My Man [0:03:29.62]
07. Lover, Come Back To Me [0:02:05.70]
08. Lady Sings The Blues [0:02:59.89]
09. What A Little Moonlight Can Do [0:02:53.84]
10. Fanfare From Oh, Lady Be Good with Conover Announcement [0:00:22.60]
11. Leonard Feather Announcement [0:00:47.13]
12. I Wished On The Moon [0:02:43.36]
13. Lover Man [0:03:05.84]
14. All The Way [0:03:26.02]
15. It's Not For Me To Say [0:02:28.46]
16. I'll Never Smile Again [0:03:26.10]
17. Just One More Chance [0:03:47.40]
18. When It's Sleepy Time Down South [0:04:08.02]
19. Don't Worry 'bout Me [0:03:10.77]
20. Sometimes I'm Happy [0:02:49.16]
21. You Took Advantage Of Me [0:03:12.33]
22. There'll Be Some Changes Made [0:02:53.97]
23. 'Deed I Do [0:02:15.82]
24. All Of You [0:02:33.20]
25. Baby, Won't You Please Come Home [0:03:03.53]

http://i69.fastpic.ru/big/2015/0830/80/07e815b7d6486e514296298b53c92780.jpg



Exact Audio Copy V0.99 prebeta 5 from 4. May 2009

EAC extraction logfile from 7. January 2010, 22:10

Billie Holiday / The Complete On Verve 1945-1959 - Disc 1

Used drive : LITE-ON CD-RW SOHR-5238S Adapter: 5 ID: 3

Read mode : Secure
Utilize accurate stream : Yes
Defeat audio cache : Yes
Make use of C2 pointers : No

Read offset correction

: 6
Overread into Lead-In and Lead-Out : No
Fill up missing offset samples with silence : Yes
Delete leading and trailing silent blocks : No
Null samples used in CRC calculations : Yes
Used interface
: Installed external ASPI interface
Gap handling
: Appended to previous track

Used output format : Internal WAV Routines
Sample format : 44.100 Hz; 16 Bit; Stereo

TOC of the extracted CD Track | Start | Length | Start sector | End sector
--1 | 0:00.32 | 3:24.08 | 32 | 15339 2 | 3:24.40 | 3:01.10 | 15340 | 28924 3 | 6:25.50 | 2:18.07 | 28925 | 39281 4 | 8:43.57 | 3:50.53 | 39282 | 56584 5 | 12:34.35 | 3:21.67 | 56585 | 71726 6 | 15:56.27 | 3:04.03 | 71727 | 85529 7 | 19:00.30 | 2:19.65 | 85530 | 96019 8 | 21:20.20 | 1:55.55 | 96020 | 104699 9 | 23:16.00 | 3:39.00 | 104700 | 121124
10 | 26:55.00 | 3:28.32 | 121125 | 136756
11 | 30:23.32 | 2:56.25 | 136757 | 149981
12 | 33:19.57 | 0:09.08 | 149982 | 150664
13 | 33:28.65 | 2:55.55 | 150665 | 163844
14 | 36:24.45 | 1:29.67 | 163845 | 170586
15 | 37:54.37 | 2:34.00 | 170587 | 182136
16 | 40:28.37 | 2:58.15 | 182137 | 195501
17 | 43:26.52 | 0:28.38 | 195502 | 197639
18 | 43:55.15 | 2:56.25 | 197640 | 210864
19 | 46:51.40 | 3:31.00 | 210865 | 226689
20 | 50:22.40 | 2:56.42 | 226690 | 239931
21 | 53:19.07 | 3:28.23 | 239932 | 255554
22 | 56:47.30 | 3:01.52 | 255555 | 269181
23 | 59:49.07 | 3:35.35 | 269182 | 285341
24 | 63:24.42 | 2:54.18 | 285342 | 298409
25 | 66:18.60 | 3:28.70 | 298410 | 314079

Track 1 Filename F:\rips\Billie Verve\D1\01 - Body And Soul.wav Pre-gap length 0:00:02.42 Peak level 99.6 %
Track quality 100.0 %
Test CRC 95E7BC2C
Copy CRC 95E7BC2C
Accurately ripped (confidence 4) [A470F31B]
Copy OK

Track 2 Filename F:\rips\Billie Verve\D1\02 - Strange Fruit.wav Peak level 100.0 %
Track quality 100.0 %
Test CRC BADE7B29
Copy CRC BADE7B29
Accurately ripped (confidence 4) [F5C2860C]
Copy OK

Track 3 Filename F:\rips\Billie Verve\D1\03 - I Cried For You.wav Pre-gap length 0:00:04.84 Peak level 100.0 %
Track quality 100.0 %
Test CRC EA4CD155
Copy CRC EA4CD155
Accurately ripped (confidence 4) [7B073284]
Copy OK

Track 4 Filename F:\rips\Billie Verve\D1\04 - Fine And Mellow.wav Peak level 100.0 %
Track quality 100.0 %
Test CRC D47B8C6A
Copy CRC D47B8C6A
Accurately ripped (confidence 4) [08D2856D]
Copy OK

Track 5 Filename F:\rips\Billie Verve\D1\05 - He's Funny That Way.wav Peak level 100.0 %
Track quality 99.9 %
Test CRC C9750BAC
Copy CRC C9750BAC
Accurately ripped (confidence 4) 7E32FFF
Copy OK

Track 6 Filename F:\rips\Billie Verve\D1\06 - The Man I Love.wav Pre-gap length 0:00:05.26 Peak level 66.8 %
Track quality 100.0 %
Test CRC 250BB88F
Copy CRC 250BB88F
Accurately ripped (confidence 4) [8D8E3B00]
Copy OK

Track 7 Filename F:\rips\Billie Verve\D1\07 - Gee Baby, Ain't I Good To You.wav Peak level 87.1 %
Track quality 100.0 %
Test CRC 089B9CA2
Copy CRC 089B9CA2
Accurately ripped (confidence 4) [8A453E5F]
Copy OK

Track 8 Filename F:\rips\Billie Verve\D1\08 - All Of Me.wav Peak level 86.7 %
Track quality 100.0 %
Test CRC E781D051
Copy CRC E781D051
Accurately ripped (confidence 4) [FC2926F8]
Copy OK

Track 9 Filename F:\rips\Billie Verve\D1\09 - Billie's Blues (aka 'I Love My Man').wav Peak level 80.1 %
Track quality 100.0 %
Test CRC 31E42647
Copy CRC 31E42647
Accurately ripped (confidence 4) [47ABBAF6]
Copy OK

Track 10 Filename F:\rips\Billie Verve\D1\10 - Travelin' Light.wav Pre-gap length 0:00:03.37 Peak level 95.9 %
Track quality 100.0 %
Test CRC F2DD3CFD
Copy CRC F2DD3CFD
Accurately ripped (confidence 4) [3E06A2AD]
Copy OK

Track 11 Filename F:\rips\Billie Verve\D1\11 - He's Funny That Way.wav Peak level 68.3 %
Track quality 99.9 %
Test CRC 8D1AA35D
Copy CRC 8D1AA35D
Accurately ripped (confidence 4) [0B7A8EE6]
Copy OK

Track 12 Filename F:\rips\Billie Verve\D1\12 - Norman Granz Announcement #1.wav Pre-gap length 0:00:04.86 Peak level 79.3 %
Track quality 100.0 %
Test CRC 24D82E2D
Copy CRC 24D82E2D
Accurately ripped (confidence 4) [9CFBE211]
Copy OK

Track 13 Filename F:\rips\Billie Verve\D1\13 - You Better Go Now.wav Peak level 90.6 %
Track quality 100.0 %
Test CRC C7155963
Copy CRC C7155963
Accurately ripped (confidence 4) [8F965523]
Copy OK

Track 14 Filename F:\rips\Billie Verve\D1\14 - You're Driving Me Crazy.wav Peak level 91.1 %
Track quality 100.0 %
Test CRC 828EDDDF
Copy CRC 828EDDDF
Accurately ripped (confidence 4) [2E5C291C]
Copy OK

Track 15 Filename F:\rips\Billie Verve\D1\15 - There Is No Greater Love.wav Peak level 99.4 %
Track quality 100.0 %
Test CRC E5AC5716
Copy CRC E5AC5716
Accurately ripped (confidence 4) [475496CB]
Copy OK

Track 16 Filename F:\rips\Billie Verve\D1\16 - I Cover The Waterfront.wav Peak level 100.0 %
Track quality 100.0 %
Test CRC 048E40EA
Copy CRC 048E40EA
Accurately ripped (confidence 4) [438C47BA]
Copy OK

Track 17 Filename F:\rips\Billie Verve\D1\17 - Norma Granz Announcement #2.wav Peak level 94.6 %
Track quality 100.0 %
Test CRC DC22A994
Copy CRC DC22A994
Accurately ripped (confidence 4) [F5B4D571]
Copy OK

Track 18 Filename F:\rips\Billie Verve\D1\18 - East Of The Sun.wav Pre-gap length 0:00:04.50 Peak level 85.7 %
Track quality 99.9 %
Test CRC 763FBB96
Copy CRC 763FBB96
Accurately ripped (confidence 4) [4953D825]
Copy OK

Track 19 Filename F:\rips\Billie Verve\D1\19 - Blue Moon.wav Pre-gap length 0:00:02.17 Peak level 100.0 %
Track quality 100.0 %
Test CRC 7A0332B1
Copy CRC 7A0332B1
Accurately ripped (confidence 4) [8FE40A4C]
Copy OK

Track 20 Filename F:\rips\Billie Verve\D1\20 - You Go To My Head.wav Pre-gap length 0:00:02.50 Peak level 100.0 %
Track quality 100.0 %
Test CRC 0AE2FEDF
Copy CRC 0AE2FEDF
Accurately ripped (confidence 4) [0A366094]
Copy OK

Track 21 Filename F:\rips\Billie Verve\D1\21 - You Turned The Tables On Me.wav Pre-gap length 0:00:02.00 Peak level 97.3 %
Track quality 100.0 %
Test CRC 67E6C1F2
Copy CRC 67E6C1F2
Accurately ripped (confidence 4) [7856DAC1]
Copy OK

Track 22 Filename F:\rips\Billie Verve\D1\22 - Easy To Love.wav Pre-gap length 0:00:01.84 Peak level 89.6 %
Track quality 100.0 %
Test CRC EDB9E087
Copy CRC EDB9E087
Accurately ripped (confidence 4) [AE466BF1]
Copy OK

Track 23 Filename F:\rips\Billie Verve\D1\23 - These Foolish Things.wav Pre-gap length 0:00:02.09 Peak level 100.0 %
Track quality 100.0 %
Test CRC 59EBA13B
Copy CRC 59EBA13B
Accurately ripped (confidence 4) [E4B6A437]
Copy OK

Track 24 Filename F:\rips\Billie Verve\D1\24 - I Only Have Eyes For You.wav Pre-gap length 0:00:01.66 Peak level 100.0 %
Track quality 100.0 %
Test CRC B7AA21C0
Copy CRC B7AA21C0
Accurately ripped (confidence 4) [E4D1E819]
Copy OK

Track 25 Filename F:\rips\Billie Verve\D1\25 - Solitude.wav Pre-gap length 0:00:02.46 Peak level 91.7 %
Track quality 100.0 %
Test CRC 86693755
Copy CRC 86693755
Accurately ripped (confidence 4) [D55F08DD]
Copy OK

All tracks accurately ripped

No errors occurred

End of status report

Exact Audio Copy V0.99 prebeta 5 from 4. May 2009

EAC extraction logfile from 6. January 2010, 21:43

Billie Holiday / The Complete On Verve 1945-1959 - Disc 2

Used drive : LITE-ON CD-RW SOHR-5238S Adapter: 5 ID: 3

Read mode : Secure
Utilize accurate stream : Yes
Defeat audio cache : Yes
Make use of C2 pointers : No

Read offset correction

: 6
Overread into Lead-In and Lead-Out : No
Fill up missing offset samples with silence : Yes
Delete leading and trailing silent blocks : No
Null samples used in CRC calculations : Yes
Used interface
: Installed external ASPI interface
Gap handling
: Appended to previous track

Used output format : Internal WAV Routines
Sample format : 44.100 Hz; 16 Bit; Stereo

TOC of the extracted CD Track | Start | Length | Start sector | End sector
--1 | 0:00.32 | 3:45.33 | 32 | 16939 2 | 3:45.65 | 2:58.47 | 16940 | 30336 3 | 6:44.37 | 3:00.23 | 30337 | 43859 4 | 9:44.60 | 3:25.07 | 43860 | 59241 5 | 13:09.67 | 2:46.38 | 59242 | 71729 6 | 15:56.30 | 2:36.62 | 71730 | 83491 7 | 18:33.17 | 3:42.45 | 83492 | 100186 8 | 22:15.62 | 3:56.33 | 100187 | 117919 9 | 26:12.20 | 2:39.05 | 117920 | 129849
10 | 28:51.25 | 3:37.00 | 129850 | 146124
11 | 32:28.25 | 3:43.12 | 146125 | 162861
12 | 36:11.37 | 2:50.33 | 162862 | 175644
13 | 39:01.70 | 3:13.50 | 175645 | 190169
14 | 42:15.45 | 3:18.65 | 190170 | 205084
15 | 45:34.35 | 0:47.70 | 205085 | 208679
16 | 46:22.30 | 2:05.27 | 208680 | 218081
17 | 48:27.57 | 1:43.30 | 218082 | 225836
18 | 50:11.12 | 2:51.43 | 225837 | 238704
19 | 53:02.55 | 1:40.37 | 238705 | 246241
20 | 54:43.17 | 3:23.08 | 246242 | 261474
21 | 58:06.25 | 2:40.67 | 261475 | 273541
22 | 60:47.17 | 3:17.00 | 273542 | 288316
23 | 64:04.17 | 0:21.00 | 288317 | 289891
24 | 64:25.17 | 11:39.25 | 289892 | 342341

Track 1 Filename F:\rips\Billie Verve\D2\01 - Everything I Have Is Yours.wav Pre-gap length 0:00:02.42 Peak level 100.0 %
Track quality 99.9 %
Test CRC 0EAA51D3
Copy CRC 0EAA51D3
Accurately ripped (confidence 2) [4B5223CD]
Copy OK

Track 2 Filename F:\rips\Billie Verve\D2\02 - Love For Sale.wav Pre-gap length 0:00:00.37 Peak level 100.0 %
Track quality 99.9 %
Test CRC 58BA6046
Copy CRC 58BA6046
Accurately ripped (confidence 2) [3960CA35]
Copy OK

Track 3 Filename F:\rips\Billie Verve\D2\03 - Moonglow.wav Pre-gap length 0:00:01.73 Peak level 100.0 %
Track quality 99.9 %
Test CRC CE06CE73
Copy CRC CE06CE73
Accurately ripped (confidence 2) [F61D198D]
Copy OK

Track 4 Filename F:\rips\Billie Verve\D2\04 - Tenderly.wav Pre-gap length 0:00:02.10 Peak level 95.1 %
Track quality 100.0 %
Test CRC A5BB422D
Copy CRC A5BB422D
Accurately ripped (confidence 2) [1D80BDEB]
Copy OK

Track 5 Filename F:\rips\Billie Verve\D2\05 - If The Moon Turns Green.wav Pre-gap length 0:00:01.89 Peak level 100.0 %
Track quality 100.0 %
Test CRC 2F40C210
Copy CRC 2F40C210
Accurately ripped (confidence 2) [A760F0C3]
Copy OK

Track 6 Filename F:\rips\Billie Verve\D2\06 - Remember.wav Pre-gap length 0:00:00.97 Peak level 94.7 %
Track quality 100.0 %
Test CRC 42D7FB12
Copy CRC 42D7FB12
Accurately ripped (confidence 2) CD89FEE
Copy OK

Track 7 Filename F:\rips\Billie Verve\D2\07 - Autumn In New York (Common Take - LP).wav Pre-gap length 0:00:02.02 Peak level 80.5 %
Track quality 100.0 %
Test CRC E9381FCE
Copy CRC E9381FCE
Accurately ripped (confidence 2) [C860B0A0]
Copy OK

Track 8 Filename F:\rips\Billie Verve\D2\08 - Autumn In New York (Rare Take - 78).wav Pre-gap length 0:00:00.73 Peak level 60.2 %
Track quality 99.9 %
Test CRC D24673D8
Copy CRC D24673D8
Accurately ripped (confidence 2) [9A77072A]
Copy OK

Track 9 Filename F:\rips\Billie Verve\D2\09 - My Man.wav Pre-gap length 0:00:03.93 Peak level 100.0 %
Track quality 99.9 %
Test CRC C7D2EB1D
Copy CRC C7D2EB1D
Accurately ripped (confidence 2) [C6DD533E]
Copy OK

Track 10 Filename F:\rips\Billie Verve\D2\10 - Lover, Come Back To Me.wav Pre-gap length 0:00:02.33 Peak level 87.3 %
Track quality 100.0 %
Test CRC 9E316026
Copy CRC 9E316026
Accurately ripped (confidence 2) [2C015B55]
Copy OK

Track 11 Filename F:\rips\Billie Verve\D2\11 - Stormy Weather.wav Pre-gap length 0:00:01.66 Peak level 100.0 %
Track quality 99.9 %
Test CRC 5E3674FB
Copy CRC 5E3674FB
Accurately ripped (confidence 2) [EA68B23F]
Copy OK

Track 12 Filename F:\rips\Billie Verve\D2\12 - Yesterdays.wav Pre-gap length 0:00:01.60 Peak level 100.0 %
Track quality 100.0 %
Test CRC 00B89CBD
Copy CRC 00B89CBD
Accurately ripped (confidence 2) [02D99D9A]
Copy OK

Track 13 Filename F:\rips\Billie Verve\D2\13 - He's Funny That Way.wav Pre-gap length 0:00:00.93 Peak level 100.0 %
Track quality 100.0 %
Test CRC B2D00D1F
Copy CRC B2D00D1F
Accurately ripped (confidence 2) [373F73DE]
Copy OK

Track 14 Filename F:\rips\Billie Verve\D2\14 - I Can't Face The Music.wav Pre-gap length 0:00:01.66 Peak level 100.0 %
Track quality 100.0 %
Test CRC FEBD8223
Copy CRC FEBD8223
Accurately ripped (confidence 2) 015E9C5
Copy OK

Track 15 Filename F:\rips\Billie Verve\D2\15 - MC And Leonard Feather Announcements.wav Pre-gap length 0:00:04.46 Peak level 64.4 %
Track quality 100.0 %
Test CRC 4BD913EE
Copy CRC 4BD913EE
Accurately ripped (confidence 2) [F63DC56E]
Copy OK

Track 16 Filename F:\rips\Billie Verve\D2\16 - Blue Moon.wav Pre-gap length 0:00:10.06 Peak level 99.5 %
Track quality 100.0 %
Test CRC AA2C4D6E
Copy CRC AA2C4D6E
Accurately ripped (confidence 2) [806EDAA0]
Copy OK

Track 17 Filename F:\rips\Billie Verve\D2\17 - All Of Me.wav Peak level 100.0 %
Track quality 100.0 %
Test CRC BCDEA3DA
Copy CRC BCDEA3DA
Accurately ripped (confidence 2) [5194E4A0]
Copy OK

Track 18 Filename F:\rips\Billie Verve\D2\18 - My Man.wav Peak level 100.0 %
Track quality 100.0 %
Test CRC F6AD1552
Copy CRC F6AD1552
Accurately ripped (confidence 2) [D94C6FE5]
Copy OK

Track 19 Filename F:\rips\Billie Verve\D2\19 - Them There Eyes.wav Peak level 95.5 %
Track quality 100.0 %
Test CRC D6CA0E9C
Copy CRC D6CA0E9C
Accurately ripped (confidence 2) [D167B359]
Copy OK

Track 20 Filename F:\rips\Billie Verve\D2\20 - I Cried For You.wav Pre-gap length 0:00:12.09 Peak level 74.9 %
Track quality 100.0 %
Test CRC 8906C36F
Copy CRC 8906C36F
Accurately ripped (confidence 2) [5AAEB75A]
Copy OK

Track 21 Filename F:\rips\Billie Verve\D2\21 - What A Little Moonlight Can Do.wav Pre-gap length 0:00:15.40 Peak level 92.0 %
Track quality 100.0 %
Test CRC 25F7DFB5
Copy CRC 25F7DFB5
Accurately ripped (confidence 2) [D35CA940]
Copy OK

Track 22 Filename F:\rips\Billie Verve\D2\22 - I Cover The Waterfront.wav Peak level 86.0 %
Track quality 100.0 %
Test CRC 15F6E07B
Copy CRC 15F6E07B
Accurately ripped (confidence 2) [DA7828D5]
Copy OK

Track 23 Filename F:\rips\Billie Verve\D2\23 - Leonard Feather Announcement.wav Peak level 76.6 %
Track quality 100.0 %
Test CRC 87B18A7E
Copy CRC 87B18A7E
Accurately ripped (confidence 2) [07EE3EE6]
Copy OK

Track 24 Filename F:\rips\Billie Verve\D2\24 - Billie's Blues (aka 'I Love My Man').wav Peak level 100.0 %
Track quality 99.9 %
Test CRC 0975BC12
Copy CRC 0975BC12
Accurately ripped (confidence 2) [D62EC4CD]
Copy OK

All tracks accurately ripped

No errors occurred

End of status report

Exact Audio Copy V0.99 prebeta 5 from 4. May 2009

EAC extraction logfile from 7. January 2010, 22:56

Billie Holiday / The Complete On Verve 1945-1959 - Disc 3

Used drive : LITE-ON CD-RW SOHR-5238S Adapter: 5 ID: 3

Read mode : Secure
Utilize accurate stream : Yes
Defeat audio cache : Yes
Make use of C2 pointers : No

Read offset correction

: 6
Overread into Lead-In and Lead-Out : No
Fill up missing offset samples with silence : Yes
Delete leading and trailing silent blocks : No
Null samples used in CRC calculations : Yes
Used interface
: Installed external ASPI interface
Gap handling
: Appended to previous track

Used output format : Internal WAV Routines
Sample format : 44.100 Hz; 16 Bit; Stereo

TOC of the extracted CD Track | Start | Length | Start sector | End sector
--1 | 0:00.32 | 6:51.13 | 32 | 30869 2 | 6:51.45 | 2:58.57 | 30870 | 44276 3 | 9:50.27 | 3:12.18 | 44277 | 58694 4 | 13:02.45 | 2:30.70 | 58695 | 70014 5 | 15:33.40 | 2:35.00 | 70015 | 81639 6 | 18:08.40 | 3:37.00 | 81640 | 97914 7 | 21:45.40 | 2:13.17 | 97915 | 107906 8 | 23:58.57 | 2:56.68 | 107907 | 121174 9 | 26:55.50 | 2:47.67 | 121175 | 133766
10 | 29:43.42 | 3:07.58 | 133767 | 147849
11 | 32:51.25 | 3:30.47 | 147850 | 163646
12 | 36:21.72 | 3:03.65 | 163647 | 177436
13 | 39:25.62 | 3:57.55 | 177437 | 195266
14 | 43:23.42 | 6:49.53 | 195267 | 225994
15 | 50:13.20 | 3:58.70 | 225995 | 243914
16 | 54:12.15 | 6:22.32 | 243915 | 272596
17 | 60:34.47 | 5:00.68 | 272597 | 295164
18 | 65:35.40 | 4:39.00 | 295165 | 316089

Track 1 Filename F:\rips\Billie Verve\D3\01 - Lover, Come Back To Me.wav Pre-gap length 0:00:02.42 Peak level 100.0 %
Track quality 100.0 %
Test CRC F855BBD7
Copy CRC F855BBD7
Accurately ripped (confidence 5) 343460A
Copy OK

Track 2 Filename F:\rips\Billie Verve\D3\02 - How Deep Is The Ocean.wav Pre-gap length 0:00:05.24 Peak level 87.8 %
Track quality 100.0 %
Test CRC E17544BB
Copy CRC E17544BB
Accurately ripped (confidence 5) [F9968029]
Copy OK

Track 3 Filename F:\rips\Billie Verve\D3\03 - What A Little Moonlight Can Do.wav Pre-gap length 0:00:01.66 Peak level 85.9 %
Track quality 99.9 %
Test CRC EAEBE0E2
Copy CRC EAEBE0E2
Accurately ripped (confidence 5) [DF53D4BF]
Copy OK

Track 4 Filename F:\rips\Billie Verve\D3\04 - I Cried For You.wav Pre-gap length 0:00:02.00 Peak level 100.0 %
Track quality 100.0 %
Test CRC ADA44DED
Copy CRC ADA44DED
Accurately ripped (confidence 5) [5DA7147A]
Copy OK

Track 5 Filename F:\rips\Billie Verve\D3\05 - Love Me Or Leave Me.wav Pre-gap length 0:00:04.84 Peak level 100.0 %
Track quality 100.0 %
Test CRC 3B39B713
Copy CRC 3B39B713
Accurately ripped (confidence 5) [5A4A5F56]
Copy OK

Track 6 Filename F:\rips\Billie Verve\D3\06 - P.S. I Love You.wav Pre-gap length 0:00:01.64 Peak level 93.5 %
Track quality 100.0 %
Test CRC 296D3EAC
Copy CRC 296D3EAC
Accurately ripped (confidence 5) [37921C84]
Copy OK

Track 7 Filename F:\rips\Billie Verve\D3\07 - Too Marvelous For Words.wav Pre-gap length 0:00:02.17 Peak level 66.2 %
Track quality 100.0 %
Test CRC BBB37E4A
Copy CRC BBB37E4A
Accurately ripped (confidence 5) [DB4FCC4E]
Copy OK

Track 8 Filename F:\rips\Billie Verve\D3\08 - Softly.wav Pre-gap length 0:00:02.16 Peak level 81.7 %
Track quality 100.0 %
Test CRC 7328D209
Copy CRC 7328D209
Accurately ripped (confidence 5) [4608D1BC]
Copy OK

Track 9 Filename F:\rips\Billie Verve\D3\09 - I Thought About You.wav Pre-gap length 0:00:02.06 Peak level 68.2 %
Track quality 100.0 %
Test CRC 3759C616
Copy CRC 3759C616
Accurately ripped (confidence 5) [71D9FA6B]
Copy OK

Track 10 Filename F:\rips\Billie Verve\D3\10 - Willow Weep For Me.wav Pre-gap length 0:00:02.62 Peak level 70.2 %
Track quality 100.0 %
Test CRC 4A0D30DA
Copy CRC 4A0D30DA
Accurately ripped (confidence 5) [F6B5AEC8]
Copy OK

Track 11 Filename F:\rips\Billie Verve\D3\11 - Stormy Blues.wav Pre-gap length 0:00:02.37 Peak level 83.1 %
Track quality 100.0 %
Test CRC 3355B669
Copy CRC 3355B669
Accurately ripped (confidence 5) [863D961D]
Copy OK

Track 12 Filename F:\rips\Billie Verve\D3\12 - Say It Isn't So.wav Pre-gap length 0:00:04.60 Peak level 93.4 %
Track quality 100.0 %
Test CRC 80199310
Copy CRC 80199310
Accurately ripped (confidence 5) [6E3BAB14]
Copy OK

Track 13 Filename F:\rips\Billie Verve\D3\13 - I've Got My Love To Keep Me Warm.wav Pre-gap length 0:00:02.53 Peak level 100.0 %
Track quality 99.9 %
Test CRC 1F528B8E
Copy CRC 1F528B8E
Accurately ripped (confidence 5) [A4BDBDBF]
Copy OK

Track 14 Filename F:\rips\Billie Verve\D3\14 - I Wished On The Moon.wav Pre-gap length 0:00:01.96 Peak level 99.9 %
Track quality 100.0 %
Test CRC 5C2238A1
Copy CRC 5C2238A1
Accurately ripped (confidence 5) [FAAA052F]
Copy OK

Track 15 Filename F:\rips\Billie Verve\D3\15 - Always.wav Pre-gap length 0:00:01.64 Peak level 96.4 %
Track quality 100.0 %
Test CRC F6609971
Copy CRC F6609971
Accurately ripped (confidence 5) [3F433019]
Copy OK

Track 16 Filename F:\rips\Billie Verve\D3\16 - Everything Happens To Me.wav Pre-gap length 0:00:02.04 Peak level 89.3 %
Track quality 100.0 %
Test CRC 57CFD3CE
Copy CRC 57CFD3CE
Accurately ripped (confidence 5) [1BDC40E2]
Copy OK

Track 17 Filename F:\rips\Billie Verve\D3\17 - Do Nothing Till You Hear From Me.wav Pre-gap length 0:00:02.16 Peak level 94.5 %
Track quality 100.0 %
Test CRC 3B27ABED
Copy CRC 3B27ABED
Accurately ripped (confidence 5) [7DDC1987]
Copy OK

Track 18 Filename F:\rips\Billie Verve\D3\18 - Ain't Misbehavin'.wav Pre-gap length 0:00:00.93 Peak level 100.0 %
Track quality 100.0 %
Test CRC AA21C18E
Copy CRC AA21C18E
Accurately ripped (confidence 5) [1EECCCEB]
Copy OK

All tracks accurately ripped

No errors occurred

End of status report

Exact Audio Copy V0.99 prebeta 5 from 4. May 2009

EAC extraction logfile from 8. January 2010, 0:14

Billie Holiday / The Complete On Verve 1945-1959 - Disc 4

Used drive : LITE-ON CD-RW SOHR-5238S Adapter: 5 ID: 3

Read mode : Secure
Utilize accurate stream : Yes
Defeat audio cache : Yes
Make use of C2 pointers : No

Read offset correction

: 6
Overread into Lead-In and Lead-Out : No
Fill up missing offset samples with silence : Yes
Delete leading and trailing silent blocks : No
Null samples used in CRC calculations : Yes
Used interface
: Installed external ASPI interface
Gap handling
: Appended to previous track

Used output format : Internal WAV Routines
Sample format : 44.100 Hz; 16 Bit; Stereo

TOC of the extracted CD Track | Start | Length | Start sector | End sector
--1 | 0:00.32 | 4:05.30 | 32 | 18436 2 | 4:05.62 | 0:40.70 | 18437 | 21506 3 | 4:46.57 | 4:32.05 | 21507 | 41911 4 | 9:18.62 | 2:47.45 | 41912 | 54481 5 | 12:06.32 | 1:05.38 | 54482 | 59394 6 | 13:11.70 | 2:13.22 | 59395 | 69391 7 | 15:25.17 | 0:50.73 | 69392 | 73214 8 | 16:16.15 | 3:25.05 | 73215 | 88594 9 | 19:41.20 | 2:28.17 | 88595 | 99711
10 | 22:09.37 | 1:57.35 | 99712 | 108521
11 | 24:06.72 | 2:57.38 | 108522 | 121834
12 | 27:04.35 | 0:52.32 | 121835 | 125766
13 | 27:56.67 | 0:35.68 | 125767 | 128459
14 | 28:32.60 | 2:45.00 | 128460 | 140834
15 | 31:17.60 | 2:01.50 | 140835 | 149959
16 | 33:19.35 | 3:26.37 | 149960 | 165446
17 | 36:45.72 | 0:36.48 | 165447 | 168194
18 | 37:22.45 | 4:25.12 | 168195 | 188081
19 | 41:47.57 | 2:26.70 | 188082 | 199101
20 | 44:14.52 | 5:33.73 | 199102 | 224149
21 | 49:48.50 | 2:59.47 | 224150 | 237621
22 | 52:48.22 | 1:48.65 | 237622 | 245786
23 | 54:37.12 | 1:40.43 | 245787 | 253329
24 | 56:17.55 | 0:49.05 | 253330 | 257009
25 | 57:06.60 | 1:55.67 | 257010 | 265701
26 | 59:02.52 | 0:32.15 | 265702 | 268116
27 | 59:34.67 | 1:38.03 | 268117 | 275469
28 | 61:12.70 | 3:17.10 | 275470 | 290254
29 | 64:30.05 | 2:30.65 | 290255 | 301569
30 | 67:00.70 | 0:07.32 | 301570 | 302126
31 | 67:08.27 | 1:32.48 | 302127 | 309074
32 | 68:41.00 | 2:15.20 | 309075 | 319219
33 | 70:56.20 | 2:06.22 | 319220 | 328691
34 | 73:02.42 | 0:41.70 | 328692 | 331836
35 | 73:44.37 | 1:02.08 | 331837 | 336494
36 | 74:46.45 | 1:05.52 | 336495 | 341421
37 | 75:52.22 | 0:27.15 | 341422 | 343461
38 | 76:19.37 | 0:20.53 | 343462 | 345014
39 | 76:40.15 | 2:26.17 | 345015 | 355981
40 | 79:06.32 | 0:20.25 | 355982 | 357506

Track 1 Filename F:\rips\Billie Verve\D4\01 - Nice Work If You Can Get It.wav Pre-gap length 0:00:02.42 Peak level 79.0 %
Track quality 99.9 %
Test CRC E3A55554
Copy CRC E3A55554
Accurately ripped (confidence 4) [A0D04F63]
Copy OK

Track 2 Filename F:\rips\Billie Verve\D4\02 - Discussion; Nice Work If You Can Get It.wav Peak level 52.0 %
Track quality 100.0 %
Test CRC 4902494F
Copy CRC 4902494F
Accurately ripped (confidence 4) [FE6898C1]
Copy OK

Track 3 Filename F:\rips\Billie Verve\D4\03 - Mandy Is Two.wav Pre-gap length 0:00:01.20 Peak level 61.7 %
Track quality 100.0 %
Test CRC C85A39A6
Copy CRC C85A39A6
Accurately ripped (confidence 4) [12765F01]
Copy OK

Track 4 Filename F:\rips\Billie Verve\D4\04 - Prelude To A Kiss.wav Pre-gap length 0:00:01.16 Peak level 39.3 %
Track quality 100.0 %
Test CRC 2291DD99
Copy CRC 2291DD99
Accurately ripped (confidence 4) [F97E5CA8]
Copy OK

Track 5 Filename F:\rips\Billie Verve\D4\05 - I Must Have That Man!.wav Pre-gap length 0:00:01.20 Peak level 77.5 %
Track quality 100.0 %
Test CRC 0234003C
Copy CRC 0234003C
Accurately ripped (confidence 4) [8FC7E9E0]
Copy OK

Track 6 Filename F:\rips\Billie Verve\D4\06 - Jeepers Creepers #1.wav Pre-gap length 0:00:00.60 Peak level 80.5 %
Track quality 100.0 %
Test CRC FFFFEBFC
Copy CRC FFFFEBFC
Accurately ripped (confidence 4) [ADA46D4E]
Copy OK

Track 7 Filename F:\rips\Billie Verve\D4\07 - Jeepers Creepers #2.wav Peak level 54.8 %
Track quality 100.0 %
Test CRC C9BBB1FE
Copy CRC C9BBB1FE
Accurately ripped (confidence 4) [9EA70F47]
Copy OK

Track 8 Filename F:\rips\Billie Verve\D4\08 - Discussion; Jeepers Creepers #1.wav Peak level 70.6 %
Track quality 100.0 %
Test CRC E0224BE4
Copy CRC E0224BE4
Accurately ripped (confidence 4) [740AC361]
Copy OK

Track 9 Filename F:\rips\Billie Verve\D4\09 - Discussion; Jeepers Creepers #2.wav Peak level 96.3 %
Track quality 100.0 %
Test CRC FD0DA23D
Copy CRC FD0DA23D
Accurately ripped (confidence 4) [A405D2B8]
Copy OK

Track 10 Filename F:\rips\Billie Verve\D4\10 - Please Don't Talk About Me When I'm Gone #1.wav Pre-gap length 0:00:01.49 Peak level 49.3 %
Track quality 100.0 %
Test CRC 6F7A59DB
Copy CRC 6F7A59DB
Accurately ripped (confidence 4) [548C42FB]
Copy OK

Track 11 Filename F:\rips\Billie Verve\D4\11 - Please Don't Talk About Me When I'm Gone #2.wav Peak level 68.2 %
Track quality 100.0 %
Test CRC AF4F8C78
Copy CRC AF4F8C78
Accurately ripped (confidence 4) [2D0E5950]
Copy OK

Track 12 Filename F:\rips\Billie Verve\D4\12 - Discussion; Moonlight In Vermont.wav Pre-gap length 0:00:00.60 Peak level 34.0 %
Track quality 100.0 %
Test CRC 30D80BFB
Copy CRC 30D80BFB
Accurately ripped (confidence 4) [1D6FB5C9]
Copy OK

Track 13 Filename F:\rips\Billie Verve\D4\13 - Misery.wav Peak level 21.8 %
Track quality 100.0 %
Test CRC B8763F76
Copy CRC B8763F76
Accurately ripped (confidence 4) [E21BC3A9]
Copy OK

Track 14 Filename F:\rips\Billie Verve\D4\14 - Restless.wav Peak level 74.1 %
Track quality 100.0 %
Test CRC 66E236E9
Copy CRC 66E236E9
Accurately ripped (confidence 4) [5ED8C59A]
Copy OK

Track 15 Filename F:\rips\Billie Verve\D4\15 - Moonlight In Vermont.wav Peak level 86.0 %
Track quality 100.0 %
Test CRC 41144EBA
Copy CRC 41144EBA
Accurately ripped (confidence 4) [51AA48CF]
Copy OK

Track 16 Filename F:\rips\Billie Verve\D4\16 - Everything Happens To Me #1.wav Pre-gap length 0:00:01.24 Peak level 87.6 %
Track quality 100.0 %
Test CRC EE361B12
Copy CRC EE361B12
Accurately ripped (confidence 4) [A774E5A5]
Copy OK

Track 17 Filename F:\rips\Billie Verve\D4\17 - Discussion #1.wav Peak level 40.1 %
Track quality 100.0 %
Test CRC 35F13723
Copy CRC 35F13723
Accurately ripped (confidence 4) [A6590FAC]
Copy OK

Track 18 Filename F:\rips\Billie Verve\D4\18 - I Don't Want To Cry Any More #1.wav Peak level 94.8 %
Track quality 100.0 %
Test CRC 1E4EDB76
Copy CRC 1E4EDB76
Accurately ripped (confidence 4) [AD6A85D8]
Copy OK

Track 19 Filename F:\rips\Billie Verve\D4\19 - I Don't Want To Cry Any More #2.wav Pre-gap length 0:00:00.60 Peak level 58.3 %
Track quality 100.0 %
Test CRC 55714EDD
Copy CRC 55714EDD
Accurately ripped (confidence 4) [C20FCA46]
Copy OK

Track 20 Filename F:\rips\Billie Verve\D4\20 - Discussion; I Don't Want To Cry Any More.wav Pre-gap length 0:00:01.13 Peak level 100.0 %
Track quality 100.0 %
Test CRC 2C06BD3C
Copy CRC 2C06BD3C
Accurately ripped (confidence 4) [4A94B61C]
Copy OK

Track 21 Filename F:\rips\Billie Verve\D4\21 - Everything Happens To Me #2.wav Pre-gap length 0:00:00.84 Peak level 68.1 %
Track quality 99.9 %
Test CRC E88DDA40
Copy CRC E88DDA40
Accurately ripped (confidence 4) [4473FF4A]
Copy OK

Track 22 Filename F:\rips\Billie Verve\D4\22 - Discussion #2.wav Pre-gap length 0:00:00.66 Peak level 76.4 %
Track quality 100.0 %
Test CRC 40FAEB23
Copy CRC 40FAEB23
Accurately ripped (confidence 4) [441D4024]
Copy OK

Track 23 Filename F:\rips\Billie Verve\D4\23 - When You Are Away, Dear.wav Pre-gap length 0:00:01.00 Peak level 49.8 %
Track quality 100.0 %
Test CRC B7D9F355
Copy CRC B7D9F355
Accurately ripped (confidence 4) [7857C433]
Copy OK

Track 24 Filename F:\rips\Billie Verve\D4\24 - Discussion #3.wav Peak level 40.7 %
Track quality 100.0 %
Test CRC BDAC1C25
Copy CRC BDAC1C25
Accurately ripped (confidence 4) [94DC6AD6]
Copy OK

Track 25 Filename F:\rips\Billie Verve\D4\25 - It Had To Be You.wav Pre-gap length 0:00:00.80 Peak level 84.2 %
Track quality 99.9 %
Test CRC 95DC0013
Copy CRC 95DC0013
Accurately ripped (confidence 4) [F491B1AB]
Copy OK

Track 26 Filename F:\rips\Billie Verve\D4\26 - The Mood That I'm In.wav Pre-gap length 0:00:01.36 Peak level 76.6 %
Track quality 99.6 %
Test CRC EF4B6C1B
Copy CRC EF4B6C1B
Accurately ripped (confidence 4) [1998D7E2]
Copy OK

Track 27 Filename F:\rips\Billie Verve\D4\27 - Gone With The Wind.wav Pre-gap length 0:00:00.73 Peak level 76.9 %
Track quality 100.0 %
Test CRC F92A8257
Copy CRC F92A8257
Accurately ripped (confidence 4) [D09F07E2]
Copy OK

Track 28 Filename F:\rips\Billie Verve\D4\28 - I Got It Bad (And That Ain't Good).wav Pre-gap length 0:00:01.97 Peak level 87.8 %
Track quality 100.0 %
Test CRC 64A71E31
Copy CRC 64A71E31
Accurately ripped (confidence 4) [59D2B36A]
Copy OK

Track 29 Filename F:\rips\Billie Verve\D4\29 - Discussion #4.wav Peak level 97.4 %
Track quality 100.0 %
Test CRC 2CC1A610
Copy CRC 2CC1A610
Accurately ripped (confidence 4) [0492F933]
Copy OK

Track 30 Filename F:\rips\Billie Verve\D4\30 - A Sunbonnet Blue.wav Peak level 52.2 %
Track quality 100.0 %
Test CRC 5A88C2C3
Copy CRC 5A88C2C3
Accurately ripped (confidence 4) [81059A59]
Copy OK

Track 31 Filename F:\rips\Billie Verve\D4\31 - (I Don't Stand A) Ghost Of A Chance.wav Pre-gap length 0:00:01.16 Peak level 56.2 %
Track quality 99.8 %
Test CRC 9DE13E61
Copy CRC 9DE13E61
Accurately ripped (confidence 4) [C0E20E59]
Copy OK

Track 32 Filename F:\rips\Billie Verve\D4\32 - Discussion #5.wav Peak level 51.8 %
Track quality 100.0 %
Test CRC 03B01BDD
Copy CRC 03B01BDD
Accurately ripped (confidence 4) [39B3E906]
Copy OK

Track 33 Filename F:\rips\Billie Verve\D4\33 - I'm Walkin' Through Heaven With You.wav Pre-gap length 0:00:01.17 Peak level 56.8 %
Track quality 100.0 %
Test CRC AB246313
Copy CRC AB246313
Accurately ripped (confidence 4) DBEFCD1
Copy OK

Track 34 Filename F:\rips\Billie Verve\D4\34 - Discussion #6.wav Pre-gap length 0:00:01.09 Peak level 51.4 %
Track quality 100.0 %
Test CRC 36106703
Copy CRC 36106703
Accurately ripped (confidence 4) [C1C9E98D]
Copy OK

Track 35 Filename F:\rips\Billie Verve\D4\35 - Just Friends.wav Peak level 61.6 %
Track quality 99.8 %
Test CRC C510D3C8
Copy CRC C510D3C8
Accurately ripped (confidence 4) [9722B3C0]
Copy OK

Track 36 Filename F:\rips\Billie Verve\D4\36 - The Nearness Of You.wav Pre-gap length 0:00:01.33 Peak level 56.7 %
Track quality 100.0 %
Test CRC 30CBAA47
Copy CRC 30CBAA47
Accurately ripped (confidence 4) [24612867]
Copy OK

Track 37 Filename F:\rips\Billie Verve\D4\37 - Discussion #7.wav Pre-gap length 0:00:01.33 Peak level 40.0 %
Track quality 100.0 %
Test CRC BE7ED833
Copy CRC BE7ED833
Accurately ripped (confidence 4) [91ADFC6E]
Copy OK

Track 38 Filename F:\rips\Billie Verve\D4\38 - It's Too Hot For Words.wav Peak level 42.1 %
Track quality 100.0 %
Test CRC 572F30BF
Copy CRC 572F30BF
Accurately ripped (confidence 4) [FB4441A1]
Copy OK

Track 39 Filename F:\rips\Billie Verve\D4\39 - They Say.wav Peak level 61.3 %
Track quality 100.0 %
Test CRC 58C0F977
Copy CRC 58C0F977
Accurately ripped (confidence 4) [AA53D436]
Copy OK

Track 40 Filename F:\rips\Billie Verve\D4\40 - I Won't Believe It.wav Pre-gap length 0:00:01.16 Peak level 35.9 %
Track quality 100.0 %
Test CRC 8F0600F7
Copy CRC 8F0600F7
Accurately ripped (confidence 4) [A44288FD]
Copy OK

All tracks accurately ripped

No errors occurred

End of status report

Ex

Billie Holiday - The Complete Billie Holiday On Verve 1945-1959 (1992) [10CD Box Set] {Verve-PolyGram} Fast Download


Ad2

 
 
 
Dear visitor, you went to the site as an unregistered user. We encourage you to register or enter the site under your name.
 
   
 
 (Votes #: 0)