2013Zone For Latest Downloads

 
     
 
Legal Downloads » Music » Dream Theater - Once In A LiveTime (1998) [EastWest AMCY-2888~9, Japan]
Menu
Home Applications
Games Movies
Music TV Shows
Torrents Graphics

Sitemap

RSS
 
Advanced Search
Last News
Site Info
Top Contributors:
  1    supper88 32766
  2    admin 32693
  3    Whisky 10080
  4    Shark_ 8911
  5    creativelivenew 8706
  6    whathesupa 2799
  7    candymypost 840
  8    hvnteam 629
  9    vuong87 3


Articles:
  This Hour: 0
  Today: 0
  This Month: 10
  All Time: 515561


Torrents:
  Today: 0
  Yesterday: 0
  All Time: 156684


Membership:
  Registered Today :0
  This Hour:0
  This Month:0
  Total:14
  Banned:1

{online}
{inform_torrent}
Friend:
We Recomend
Trend
Trend
Ad1

Search In Site

Music : Dream Theater - Once In A LiveTime (1998) [EastWest AMCY-2888~9, Japan]
 
http://i65.fastpic.ru/big/2015/0830/3d/e117bd2875da867643ee53b26943c63d.jpg

Dream Theater - Once In A LiveTime (1998)
EAC | Flac(Image) + Cue + Log & MP3 CBR 320Kbps
2CD | EastWest, AMCY-2888~9 | ~ 1158 or 364 Mb | Scans(600dpi, jpg) -> 103 Mb
Progressive Metal

"Dream Theater finally released their first official live album, the double-disc Once in a LIVEtime (recorded June 1998 in Paris). Granted, the 1995 release A Change of Seasons contained a wealth of live material, but they were all cover songs, and 1994's Live at the Marquee was only available as a European import..."


Tracklist CD1:

01. A Change Of Seasons I: The Crimson Sunrise (3:57)
02. A Change Of Seasons II: Innocence (3:06)
03. Puppies On Acid (1:24)
04. Just Let Me Breathe (5:53)
05. Voices (10:35)
06. Take The Time (12:20)
07. Derek Sherinian Piano Solo (1:54)
08. Lines In The Sand (13:13)
09. Scarred (9:28)
10. A Change Of Seasons IV: The Darkest Of Winters (3:18)
11. Ytse Jam (4:10)
12. Mike Portnoi Drum Solo (7:00)

Exact Audio Copy V0.99 prebeta 5 from 4. May 2009

Archivo Log de extracciones desde 10. Abril 2012, 9:21

Dream Theater / Once In A Llive Time (Disc 1) - Japan (AMCY-2888)

Usar unidad : HL-DT-STDVDRAM GH22NS70 Adapter: 0 ID: 0

Modo de Lectura : Seguro
Utilizar Corriente Exacta : Sн
Descartar Audio cachй : Sн
Utilizar los punteros C2 : No

Correcciуn de Desplazamiento de Lectura : 667
Sobreleer tanto en Lead-In como en Lead-Out : No
Rellenar las muestras faltantes con silencios : Sн
Eliminar silencios inicial y final : No
Se han usado muestras nulas en los cбlculos CRC : Sн
Interfaz usada
: Interfaz propio de Win32 para Windowns NT y 2000

Formato de Salida utilizado : Compresor sin pйrdida Monkey's Audio
Bitrate seleccionado

: High Lossless Compression
Calidad
: Alta
Aсadir Etiqueta ID3

: Sн
Compresor de linea de comandos : C:\Program Files (x86)\Exact Audio Copy\MAC.exe

TOC del CD extraido Pista | Inicio | Duraciуn | Sector inicial | Sector final
1 | 0:00.00 | 3:56.67 | 0 | 17766 2 | 3:56.67 | 3:05.55 | 17767 | 31696 3 | 7:02.47 | 1:24.03 | 31697 | 37999 4 | 8:26.50 | 5:53.00 | 38000 | 64474 5 | 14:19.50 | 10:34.40 | 64475 | 112064 6 | 24:54.15 | 12:20.05 | 112065 | 167569 7 | 37:14.20 | 1:54.12 | 167570 | 176131 8 | 39:08.32 | 13:13.35 | 176132 | 235641 9 | 52:21.67 | 9:27.43 | 235642 | 278209
10 | 61:49.35 | 3:17.60 | 278210 | 293044
11 | 65:07.20 | 4:09.50 | 293045 | 311769
12 | 69:16.70 | 6:59.55 | 311770 | 343249

Gama de estados y errores

Seleccionar gama Nombre de Archivo E:\Mъsica\EAC\Dream Theater\Once In A Live Time\Dream Theater - Once In A Llive Time (Disc 1) - Japan (AMCY-2888).wav Nivel Pico 100.0 %
Gama de Calidad 100.0 %
Test CRC AC517F58
Copiar CRC AC517F58
Copia OK

Sin Errores


Resumen AccurateRip

Pista 1 extraido de modo preciso (nivel de confianza 5) [CC8090E5]
Pista 2 extraido de modo preciso (nivel de confianza 5) [C67C7BAE]
Pista 3 extraido de modo preciso (nivel de confianza 5) [F2BEF0CE]
Pista 4 extraido de modo preciso (nivel de confianza 5) [51B87ED7]
Pista 5 extraido de modo preciso (nivel de confianza 5) [3DB8C9F0]
Pista 6 extraido de modo preciso (nivel de confianza 4) [901FC5AF]
Pista 7 extraido de modo preciso (nivel de confianza 5) [1EC5B8AE]
Pista 8 extraido de modo preciso (nivel de confianza 5) [70966742]
Pista 9 extraido de modo preciso (nivel de confianza 5) [0F1153BB]
Pista 10 extraido de modo preciso (nivel de confianza 5) 2E020B4
Pista 11 extraido de modo preciso (nivel de confianza 5) [AC595D9A]
Pista 12 extraido de modo preciso (nivel de confianza 5) [0C8D8CB6]

Todas las pistas extraidas de modo preciso

Final del Informe

foobar2000 1.2.9 / Dynamic Range Meter 1.1.1
log date: 2015-08-27 22:06:19

Analyzed: Dream Theater / Once In A Live Time (CD 1) [AMCY-2888]

DR Peak RMS Duration Track

DR8 0.00 dB -10.58 dB 3:57 01-A Change Of Seasons I: The Crimson Sunrise
DR7 0.00 dB -8.38 dB 3:06 02-A Change Of Seasons II: Innocence
DR7 0.00 dB -8.12 dB 1:24 03-Puppies On Acid
DR7 0.00 dB -8.06 dB 5:53 04-Just Let Me Breathe
DR9 0.00 dB -10.84 dB 10:35 05-Voices
DR9 0.00 dB -9.85 dB 12:20 06-Take The Time
DR11 -0.10 dB -14.24 dB 1:54 07-Derek Sherinian Piano Solo
DR7 -0.10 dB -8.94 dB 13:13 08-Lines In The Sand
DR9 -0.10 dB -10.77 dB 9:28 09-Scarred
DR9 -0.10 dB -9.91 dB 3:18 10-A Change Of Seasons IV: The Darkest Of Winters
DR9 -0.10 dB -10.22 dB 4:10 11-Ytse Jam
DR9 -0.10 dB -12.50 dB 7:00 12-Mike Portnoi Drum Solo

Number of tracks: 12
Official DR value: DR8

Samplerate: 44100 Hz
Channels: 2
Bits per sample: 16
Bitrate: 1023 kbps
Codec: FLAC

[CUETools log; Date: 27.08.2015 21:39:43; Version: 2.1.4]
[CTDB TOCID: yKOY2HNYmP3CaU0oqChWJ60bpt0-] found.
Track | CTDB Status
1 | (155/155) Accurately ripped
2 | (154/155) Accurately ripped
3 | (155/155) Accurately ripped
4 | (155/155) Accurately ripped
5 | (155/155) Accurately ripped
6 | (155/155) Accurately ripped
7 | (155/155) Accurately ripped
8 | (155/155) Accurately ripped
9 | (150/155) Accurately ripped, or (5/155) differs in 51 samples @04:06:04-04:06:05,04:08:21-04:08:23,04:10:39
10 | (155/155) Accurately ripped
11 | (155/155) Accurately ripped
12 | (155/155) Accurately ripped
[AccurateRip ID: 001f9477-01341074-9e11e00c] found.
Track [ CRC | V2 ] Status
01 [cc8090e5|7c7824d7] (005+006/295) Accurately ripped
02 [c67c7bae|87082f7c] (005+006/295) Accurately ripped
03 [f2bef0ce|621fc377] (005+006/298) Accurately ripped
04 [51b87ed7|2e3d9dd7] (005+006/295) Accurately ripped
05 [3db8c9f0|c89451e5] (005+006/296) Accurately ripped
06 [901fc5af|aa3ae2fa] (004+006/292) Accurately ripped
07 [1ec5b8ae|e6f30a79] (005+006/297) Accurately ripped
08 [70966742|6a49bcdc] (005+006/294) Accurately ripped
09 [0f1153bb|5ada05b3] (005+006/295) Accurately ripped
10 2e020b4|7b230c25 (005+006/292) Accurately ripped
11 [ac595d9a|8d987127] (005+006/295) Accurately ripped
12 [0c8d8cb6|9f4f7dad] (005+006/290) Accurately ripped
Offsetted by 46:
01 [c4b6c4b3] (002/295) Accurately ripped
02 b7df880 (002/295) Accurately ripped
03 [a4c1c275] (002/298) Accurately ripped
04 [5a4022a7] (002/295) Accurately ripped
05 [d73f0632] (002/296) Accurately ripped
06 [857001a0] (002/292) Accurately ripped
07 [3d2a18f3] (002/297) Accurately ripped
08 [25d582af] (002/294) Accurately ripped
09 [2c117341] (002/295) Accurately ripped
10 [a3226b10] (002/292) Accurately ripped
11 9ecad4b (002/295) Accurately ripped
12 [3f46f316] (002/290) Accurately ripped
Offsetted by 672:
01 [3c1a7577] (009/295) Accurately ripped
02 [9fc278bf] (009/295) Accurately ripped
03 [1f4ec3ca] (009/298) Accurately ripped
04 [0cb3225e] (009/295) Accurately ripped
05 [16e5d5ae] (009/296) Accurately ripped
06 [eb7abd0f] (009/292) Accurately ripped
07 [ef77418d] (009/297) Accurately ripped
08 [df4c8edc] (009/294) Accurately ripped
09 [a167950b] (009/295) Accurately ripped
10 409f259 (008/292) Accurately ripped
11 [a0774d3e] (009/295) Accurately ripped
12 [43d3dbcf] (008/290) Accurately ripped
Offsetted by 710:
01 [0d300c70] (142/295) Accurately ripped
02 [3020bba6] (142/295) Accurately ripped
03 [f52495e9] (143/298) Accurately ripped
04 01e63e7 (143/295) Accurately ripped
05 [2d66af6e] (143/296) Accurately ripped
06 [5c92eb51] (142/292) Accurately ripped
07 [60fc10b0] (143/297) Accurately ripped
08 [a358ddfa] (142/294) Accurately ripped
09 [d593cecd] (142/295) Accurately ripped
10 [e22cbe8f] (139/292) Accurately ripped
11 [846f4fb3] (141/295) Accurately ripped
12 [488a91e5] (139/290) Accurately ripped
Offsetted by -154:
01 [d3566105] (000/295) No match (V2 was not tested)
02 [2a1590cb] (000/295) No match (V2 was not tested)
03 [c6568783] (000/298) No match (V2 was not tested)
04 [e57be5bc] (000/295) No match (V2 was not tested)
05 [c5f79799] (000/296) No match (V2 was not tested)
06 [edcc6821] (000/292) No match (V2 was not tested)
07 [e3d15ab6] (000/297) No match (V2 was not tested)
08 [1a4b6728] (000/294) No match (V2 was not tested)
09 [602a0aa6] (000/295) No match (V2 was not tested)
10 [6151c53e] (000/292) No match (V2 was not tested)
11 [963f6885] (000/295) No match (V2 was not tested)
12 [7b9ce8b0] (000/290) No match (V2 was not tested)
Offsetted by -20:
01 [8fe85107] (000/295) No match (V2 was not tested)
02 [cd756b79] (000/295) No match (V2 was not tested)
03 [e3413247] (000/298) No match (V2 was not tested)
04 [6d181c91] (000/295) No match (V2 was not tested)
05 [8d0ebea4] (000/296) No match (V2 was not tested)
06 [c38a174b] (000/292) No match (V2 was not tested)
07 [9d47dec1] (000/297) No match (V2 was not tested)
08 [3ddde29e] (000/294) No match (V2 was not tested)
09 4c6afbc (000/295) No match (V2 was not tested)
10 [0bcb5577] (000/292) No match (V2 was not tested)
11 [fc1c1e7f] (000/295) No match (V2 was not tested)
12 [4586c251] (000/290) No match (V2 was not tested)
Offsetted by 674:
01 [e6587e4f] (000/295) No match (V2 was not tested)
02 [eb11b17b] (000/295) No match (V2 was not tested)
03 [c57f0bfd] (000/298) No match (V2 was not tested)
04 [c4f8da30] (000/295) No match (V2 was not tested)
05 [68aaad6d] (000/296) No match (V2 was not tested)
06 [43ec0fc1] (000/292) No match (V2 was not tested)
07 a8625ab (000/297) No match (V2 was not tested)
08 [249b3f3d] (000/294) No match (V2 was not tested)
09 [3f43222f] (000/295) No match (V2 was not tested)
10 0b2b5fa (000/292) No match (V2 was not tested)
11 [7aed3ccc] (000/295) No match (V2 was not tested)
12 [2fc1cb54] (000/290) No match (V2 was not tested)

Track Peak [ CRC32 ] [W/O NULL]
-- 99,9 [AC517F58] D404224
01 99,9 B23D54A [0DF08F16]
02 99,9 [76ED65F0] [250D29E9]
03 99,9 [4D27E06C] [50A39E9D]
04 99,9 [5FCC4509] [83957C94]
05 99,9 [28D6E509] [2A9EECE1]
06 99,9 [0C78D017] 838A441
07 98,8 [151C1C13] [1EEA88B6]
08 98,8 [48ECE939] [9A96C070]
09 98,8 [241B496A] [7D238296]
10 98,8 [DC956811] [9F1B33F7]
11 98,8 [FBF13DAE] [E02B0294]
12 98,8 [376F2B77] [61AB51DF]

http://i69.fastpic.ru/big/2015/0830/1f/096a29a005e2fd35cbb5b0bf437d751f.jpg

Tracklist CD2:

01. Trial Of Tears (14:11)
02. Hollow Years (7:02)
03. Take Away My Pain (6:17)
04. Caught In A Web (5:16)
05. Lie (6:46)
06. Peruvian Skies (7:50)
07. John Petrucci Guitar Solo (8:07)
08. Pull Me Under (8:15)
09. Metropolis (6:16)
10. Learning To Live (4:13)
11. A Change Of Seasons VII: The Crimson Sunset (3:49)

Exact Audio Copy V0.99 prebeta 5 from 4. May 2009

Archivo Log de extracciones desde 10. Abril 2012, 9:46

Dream Theater / Once In A Live Time (CD 2) - Japan (AMCY-2889)

Usar unidad : HL-DT-STDVDRAM GH22NS70 Adapter: 0 ID: 0

Modo de Lectura : Seguro
Utilizar Corriente Exacta : Sн
Descartar Audio cachй : Sн
Utilizar los punteros C2 : No

Correcciуn de Desplazamiento de Lectura : 667
Sobreleer tanto en Lead-In como en Lead-Out : No
Rellenar las muestras faltantes con silencios : Sн
Eliminar silencios inicial y final : No
Se han usado muestras nulas en los cбlculos CRC : Sн
Interfaz usada
: Interfaz propio de Win32 para Windowns NT y 2000

Formato de Salida utilizado : Compresor sin pйrdida Monkey's Audio
Bitrate seleccionado

: High Lossless Compression
Calidad
: Alta
Aсadir Etiqueta ID3

: Sн
Compresor de linea de comandos : C:\Program Files (x86)\Exact Audio Copy\MAC.exe

TOC del CD extraido Pista | Inicio | Duraciуn | Sector inicial | Sector final
1 | 0:00.00 | 14:11.20 | 0 | 63844 2 | 14:11.20 | 7:01.47 | 63845 | 95466 3 | 21:12.67 | 6:16.65 | 95467 | 123731 4 | 27:29.57 | 5:16.15 | 123732 | 147446 5 | 32:45.72 | 6:45.43 | 147447 | 177864 6 | 39:31.40 | 7:50.32 | 177865 | 213146 7 | 47:21.72 | 8:06.60 | 213147 | 249656 8 | 55:28.57 | 8:15.15 | 249657 | 286796 9 | 63:43.72 | 6:16.23 | 286797 | 315019
10 | 70:00.20 | 4:13.27 | 315020 | 334021
11 | 74:13.47 | 3:49.00 | 334022 | 351196

Gama de estados y errores

Seleccionar gama Nombre de Archivo E:\Mъsica\EAC\Dream Theater\Once In A Live Time\Dream Theater - Once In A Live Time (CD 2) - Japan (AMCY-2889).wav Nivel Pico 98.8 %
Gama de Calidad 100.0 %
Test CRC 2A9DF902
Copiar CRC 2A9DF902
Copia OK

Sin Errores


Resumen AccurateRip

Pista 1 extraido de modo preciso (nivel de confianza 5) B2A352C
Pista 2 extraido de modo preciso (nivel de confianza 5) [584436FC]
Pista 3 extraido de modo preciso (nivel de confianza 5) [5D04EB2D]
Pista 4 extraido de modo preciso (nivel de confianza 5) [ADC9BAA8]
Pista 5 extraido de modo preciso (nivel de confianza 5) [1B4D0711]
Pista 6 extraido de modo preciso (nivel de confianza 5) [3CA172EA]
Pista 7 extraido de modo preciso (nivel de confianza 5) [39638A4C]
Pista 8 extraido de modo preciso (nivel de confianza 5) [A5AE8AD1]
Pista 9 extraido de modo preciso (nivel de confianza 5) [089813F9]
Pista 10 extraido de modo preciso (nivel de confianza 5) [EE8B6677]
Pista 11 extraido de modo preciso (nivel de confianza 5) [710E26B1]

Todas las pistas extraidas de modo preciso

Final del Informe

foobar2000 1.2.9 / Dynamic Range Meter 1.1.1
log date: 2015-08-27 22:05:56

Analyzed: Dream Theater / Once In A Live Time (CD 2) [AMCY-2889]

DR Peak RMS Duration Track

DR7 -0.10 dB -10.21 dB 14:11 01-Trial Of Tears
DR7 -0.10 dB -10.20 dB 7:02 02-Hollow Years
DR7 -0.10 dB -10.08 dB 6:17 03-Take Away My Pain
DR7 -0.10 dB -8.19 dB 5:16 04-Caught In A Web
DR7 -0.10 dB -8.27 dB 6:46 05-Lie
DR7 -0.10 dB -8.69 dB 7:50 06-Peruvian Skies
DR8 -0.10 dB -9.66 dB 8:07 07-John Petrucci Guitar Solo
DR7 -0.10 dB -8.36 dB 8:15 08-Pull Me Under
DR7 -0.10 dB -8.15 dB 6:16 09-Metropolis
DR7 -0.10 dB -8.36 dB 4:13 10-Learning To Live
DR6 -0.10 dB -7.99 dB 3:49 11-A Change Of Seasons VII: The Crimson Sunset

Number of tracks: 11
Official DR value: DR7

Samplerate: 44100 Hz
Channels: 2
Bits per sample: 16
Bitrate: 1015 kbps
Codec: FLAC

[CUETools log; Date: 27.08.2015 21:43:11; Version: 2.1.4]
[CTDB TOCID: iqRT2Z18ALsL2ouOFpCjg_97Xac-] found.
Track | CTDB Status
1 | (15/15) Accurately ripped
2 | (15/15) Accurately ripped
3 | (15/15) Accurately ripped
4 | (15/15) Accurately ripped
5 | (15/15) Accurately ripped
6 | (15/15) Accurately ripped
7 | (15/15) Accurately ripped
8 | (15/15) Accurately ripped
9 | (15/15) Accurately ripped
10 | (15/15) Accurately ripped
11 | (15/15) Accurately ripped
[AccurateRip ID: 0023fbb4-012e7875-99124a0b] found.
Track [ CRC | V2 ] Status
01 b2a352c|65f5ba42 (05+06/24) Accurately ripped
02 [584436fc|bb3d0094] (05+06/24) Accurately ripped
03 [5d04eb2d|5ad26a5b] (05+06/24) Accurately ripped
04 [adc9baa8|84338264] (05+06/24) Accurately ripped
05 [1b4d0711|7cb0c4ea] (05+06/24) Accurately ripped
06 [3ca172ea|40def1a2] (05+06/24) Accurately ripped
07 [39638a4c|9fba54d6] (05+06/24) Accurately ripped
08 [a5ae8ad1|959de61b] (05+06/24) Accurately ripped
09 [089813f9|c15c9ad0] (05+06/24) Accurately ripped
10 [ee8b6677|d3414837] (05+06/24) Accurately ripped
11 [710e26b1|d483afa9] (05+06/23) Accurately ripped
Offsetted by 1452:
01 [361c4c1f] (09/24) Accurately ripped
02 [a1d27e1a] (09/24) Accurately ripped
03 [c1818453] (09/24) Accurately ripped
04 [d53dcdee] (09/24) Accurately ripped
05 [33b8f348] (09/24) Accurately ripped
06 [8b3c9c6a] (09/24) Accurately ripped
07 [e959df2e] (09/24) Accurately ripped
08 [f66c44b4] (09/24) Accurately ripped
09 [c49dfe74] (09/24) Accurately ripped
10 [2ae57251] (09/24) Accurately ripped
11 [da264faf] (08/23) Accurately ripped

Track Peak [ CRC32 ] [W/O NULL]
-- 98,8 [2A9DF902] [AD69BAD7]
01 98,8 [65621492] [15CDFD86]
02 98,8 [4F15CE6A] [2F9ECAF7]
03 98,8 [8BC12724] [A46363A2]
04 98,8 [3D45348F] [0C70EC15]
05 98,8 [2856E1DA] BFF4887
06 98,8 [475AC2AE] [9F472984]
07 98,8 [44863F16] [336C485B]
08 98,8 [577B0EB2] [39587C77]
09 98,8 [035F258F] [E9BD19F8]
10 98,8 [3894777D] [1A912373]
11 98,8 [14D13273] [3F0E5AD9]

http://i71.fastpic.ru/big/2015/0830/99/08700d732e55b1aa5e8d29d53460a299.jpg

DOWNLOAD LINKS:
Buy Premium To Support Me & Get Resumable Support & Max Speed


Links are Interchangeable - No Password - Single Extraction

Dream Theater - Once In A LiveTime (1998) [EastWest AMCY-2888~9, Japan] Fast Download


Ad2

 
 
 
Dear visitor, you went to the site as an unregistered user. We encourage you to register or enter the site under your name.
 
   
 
 (Votes #: 0)