2013Zone For Latest Downloads

 
     
 
Legal Downloads » Music » Jimmy Buffett - Live In Mansfield, MA (2003)
Menu
Home Applications
Games Movies
Music TV Shows
Torrents Graphics

Sitemap

RSS
 
Advanced Search
Last News
Site Info
Top Contributors:
  1    supper88 32766
  2    admin 32693
  3    Whisky 10080
  4    Shark_ 8911
  5    creativelivenew 8706
  6    whathesupa 2799
  7    candymypost 840
  8    hvnteam 629
  9    vuong87 3


Articles:
  This Hour: 0
  Today: 0
  This Month: 10
  All Time: 515561


Torrents:
  Today: 0
  Yesterday: 0
  All Time: 156684


Membership:
  Registered Today :0
  This Hour:0
  This Month:0
  Total:14
  Banned:1

{online}
{inform_torrent}
Friend:
We Recomend
Trend
Trend
Ad1

Search In Site

Music : Jimmy Buffett - Live In Mansfield, MA (2003)
 
http://i72.fastpic.ru/big/2015/0830/71/70084e971546bf6d92a235363441bf71.jpg

Jimmy Buffett - Live In Mansfield, MA (2003)
EAC Secure Rip | FLAC (Image + Cue + Log) - 887 MB | Complete Scans (Jpeg 600 dpi) - 80 MB | MP3 (CBR320 Kbps) - 326 MB
Gulf & Western | Mailboat Records, Inc. | MBD 2107 | 128:18 minutes | Hosted on: NitroFlare

Official soundboard recorded live at the Tweeter Centre in Mansfield (Boston), Massachusetts on August 30, 2003. These concerts were recorded from the sound board at each show. Nothing has been edited. Nothing has been altered in any way.
Exact Audio Copy V1.0 beta 2 from 29. April 2011

EAC extraction logfile from 8. May 2015, 22:00

Jimmy Buffett / Live In Mansfield, MA

Used drive : HL-DT-STBD-RE BH14NS40 Adapter: 0 ID: 2

Read mode : Secure
Utilize accurate stream : Yes
Defeat audio cache : Yes
Make use of C2 pointers : No

Read offset correction

: 6
Overread into Lead-In and Lead-Out : No
Fill up missing offset samples with silence : Yes
Delete leading and trailing silent blocks : No
Null samples used in CRC calculations : Yes
Used interface
: Native Win32 interface for Win NT & 2000

Used output format : User Defined Encoder
Selected bitrate : 1024 kBit/s
Quality : High
Add ID3 tag : No
Command line compressor : C:\Program Files (x86)\Exact Audio Copy\Flac\flac.exe
Additional command line options : -V -5 -T "artist=%albumartist%" -T "title=%title%" -T "album=%albumtitle%" -T "date=%year%" -T "genre=%genre%" -T "tracknumber=%tracknr%" %source%

TOC of the extracted CD Track | Start | Length | Start sector | End sector
--1 | 0:00.00 | 5:18.40 | 0 | 23889 2 | 5:18.40 | 3:51.55 | 23890 | 41269 3 | 9:10.20 | 6:02.25 | 41270 | 68444 4 | 15:12.45 | 4:36.37 | 68445 | 89181 5 | 19:49.07 | 5:17.30 | 89182 | 112986 6 | 25:06.37 | 3:42.43 | 112987 | 129679 7 | 28:49.05 | 3:44.05 | 129680 | 146484 8 | 32:33.10 | 3:57.52 | 146485 | 164311 9 | 36:30.62 | 4:51.63 | 164312 | 186199
10 | 41:22.50 | 4:14.50 | 186200 | 205299
11 | 45:37.25 | 4:22.20 | 205300 | 224969
12 | 49:59.45 | 6:21.60 | 224970 | 253604
13 | 56:21.30 | 3:34.10 | 253605 | 269664

Range status and errors

Selected range Filename C:\EAC\Jimmy Buffett - (2003) Live In Mansfield, MA\CD1\Jimmy Buffett - Live In Mansfield, MA.wav Peak level 98.9 %
Extraction speed 4.8 X
Range quality 99.9 %
Test CRC 80B9F1F0
Copy CRC 80B9F1F0
Copy OK

No errors occurred


AccurateRip summary

Track 1 accurately ripped (confidence 2) [9DD883BB] (AR v2)
Track 2 accurately ripped (confidence 2) [D122399F] (AR v2)
Track 3 accurately ripped (confidence 2) [A67192D7] (AR v2)
Track 4 accurately ripped (confidence 2) [95D49BDB] (AR v2)
Track 5 accurately ripped (confidence 2) [6BDA581A] (AR v2)
Track 6 accurately ripped (confidence 2) [549AB427] (AR v2)
Track 7 accurately ripped (confidence 2) [A6089EE2] (AR v2)
Track 8 accurately ripped (confidence 2) [83382CDA] (AR v2)
Track 9 accurately ripped (confidence 2) [3B3A43D6] (AR v2)
Track 10 accurately ripped (confidence 2) [623AB01E] (AR v2)
Track 11 accurately ripped (confidence 2) 4B956F0 (AR v2)
Track 12 accurately ripped (confidence 2) [0356F4DD] (AR v2)
Track 13 accurately ripped (confidence 2) [823820AD] (AR v2)

All tracks accurately ripped

End of status report

==== Log checksum 1A476C032DD45710CA7CDBCE85F5B0A3CBEC7C75BCAF6A9522FC9FDAC1C2BD59 ====

_______________________________________________________________________________________________________________
>>>>> DISC TWO
_______________________________________________________________________________________________________________

Exact Audio Copy V1.0 beta 2 from 29. April 2011

EAC extraction logfile from 24. August 2015, 20:03

Jimmy Buffett / Live In Mansfield, MA (2)

Used drive : HL-DT-STBD-RE BH14NS40 Adapter: 0 ID: 2

Read mode : Secure
Utilize accurate stream : Yes
Defeat audio cache : Yes
Make use of C2 pointers : No

Read offset correction

: 6
Overread into Lead-In and Lead-Out : No
Fill up missing offset samples with silence : Yes
Delete leading and trailing silent blocks : No
Null samples used in CRC calculations : Yes
Used interface
: Native Win32 interface for Win NT & 2000

Used output format : User Defined Encoder
Selected bitrate : 1024 kBit/s
Quality : High
Add ID3 tag : No
Command line compressor : C:\Program Files (x86)\Exact Audio Copy\Flac\flac.exe
Additional command line options : -V -5 -T "artist=%albumartist%" -T "title=%title%" -T "album=%albumtitle%" -T "date=%year%" -T "genre=%genre%" -T "tracknumber=%tracknr%" %source%

TOC of the extracted CD Track | Start | Length | Start sector | End sector
--1 | 0:00.00 | 5:41.35 | 0 | 25609 2 | 5:41.35 | 4:11.17 | 25610 | 44451 3 | 9:52.52 | 4:55.28 | 44452 | 66604 4 | 14:48.05 | 5:04.27 | 66605 | 89431 5 | 19:52.32 | 4:06.53 | 89432 | 107934 6 | 23:59.10 | 4:26.02 | 107935 | 127886 7 | 28:25.12 | 4:46.65 | 127887 | 149401 8 | 33:12.02 | 3:53.30 | 149402 | 166906 9 | 37:05.32 | 4:12.18 | 166907 | 185824
10 | 41:17.50 | 4:11.02 | 185825 | 204651
11 | 45:28.52 | 4:34.20 | 204652 | 225221
12 | 50:02.72 | 3:53.25 | 225222 | 242721
13 | 53:56.22 | 7:07.65 | 242722 | 274811
14 | 61:04.12 | 3:21.65 | 274812 | 289951
15 | 64:26.02 | 3:55.43 | 289952 | 307619

Range status and errors

Selected range Filename C:\EAC\Jimmy Buffett - (2003) Live In Mansfield, MA\CD2\Jimmy Buffett - Live In Mansfield, MA (2).wav Peak level 98.9 %
Extraction speed 5.7 X
Range quality 100.0 %
Test CRC 4225BFE5
Copy CRC 4225BFE5
Copy OK

No errors occurred


AccurateRip summary

Track 1 accurately ripped (confidence 2) [2C3053D0] (AR v2)
Track 2 accurately ripped (confidence 2) [18DD6B85] (AR v2)
Track 3 accurately ripped (confidence 2) [68D5F9CD] (AR v2)
Track 4 accurately ripped (confidence 2) [21D6CBB6] (AR v2)
Track 5 accurately ripped (confidence 2) [2B5AD824] (AR v2)
Track 6 accurately ripped (confidence 2) [9CD8F811] (AR v2)
Track 7 accurately ripped (confidence 2) [95E875C5] (AR v2)
Track 8 accurately ripped (confidence 2) [CF2E811E] (AR v2)
Track 9 accurately ripped (confidence 2) [A8728492] (AR v2)
Track 10 accurately ripped (confidence 2) [9DCDE4D0] (AR v2)
Track 11 accurately ripped (confidence 2) [CE5E690A] (AR v2)
Track 12 accurately ripped (confidence 2) [2EAC43FA] (AR v2)
Track 13 accurately ripped (confidence 2) [0D46CC48] (AR v2)
Track 14 accurately ripped (confidence 2) [39F6CDB9] (AR v2)
Track 15 accurately ripped (confidence 5) [6F0FFE30] (AR v1)

All tracks accurately ripped

End of status report

==== Log checksum CF385227DBD4250964E7CA503943207AA68B734BEE4D4AC9378390D49FD9B20A ====

Track Listing:

01. Great Heart
02. Gravity Storm
03. Gypsies In The Palace
04. In The Shelter
05. Honey Do
06. Son Of A Son Of A Sailor
07. Knees Of My Heart
08. Coconut Telegraph
09. Natives Are Restless
10. Come Monday
11. It's 5 O'Clock Somewhere
12. One Particular Harbour
13. Cheeseburger In Paradise

01. Tiki Bar Is Open
02. Everybody's Talkin'
03. Why Don't We Get Drunk
04. Wino And I Know
05. It's My Job
06. School Boy Heart
07. Pirate Looks At Forty
08. Changes In Latitudes, Changes In Attitudes
09. Apocalypso
10. Mexico
11. Margaritaville
12. Volcano
13. Fins
14. Sea Cruise
15. Lovely Cruise

Album Released: January 13, 2004

foobar2000 1.3.2 / Dynamic Range Meter 1.1.0
log date: 2015-08-24 17:57:37

Analyzed: Jimmy Buffett / Live In Mansfield, MA

DR Peak RMS Duration Track

DR7 -0.10 dB -8.50 dB 5:19 01-Great Heart
DR6 -0.10 dB -8.78 dB 3:52 02-Gravity Storm
DR7 -0.10 dB -9.56 dB 6:02 03-Gypsies In The Palace
DR7 -0.10 dB -8.83 dB 4:36 04-In The Shelter
DR7 -0.10 dB -9.45 dB 5:17 05-Honey Do
DR6 -0.10 dB -8.67 dB 3:43 06-Son Of A Son Of A Sailor
DR7 -0.10 dB -8.85 dB 3:44 07-Knees Of My Heart
DR6 -0.10 dB -7.99 dB 3:58 08-Coconut Telegraph
DR6 -0.10 dB -8.92 dB 4:52 09-Natives Are Restless
DR6 -0.10 dB -8.47 dB 4:15 10-Come Monday
DR6 -0.10 dB -7.95 dB 4:22 11-It's 5 O'Clock Somewhere
DR6 -0.10 dB -7.34 dB 6:22 12-One Particular Harbour
DR5 -0.10 dB -6.73 dB 3:34 13-Cheeseburger In Paradise

Number of tracks: 13
Official DR value: DR6

Samplerate: 44100 Hz
Channels: 2
Bits per sample: 16
Bitrate: 961 kbps
Codec: FLAC

_______________________________________________________________________________________________________________
>>>>> DISC TWO
_______________________________________________________________________________________________________________

foobar2000 1.3.2 / Dynamic Range Meter 1.1.0
log date: 2015-08-24 20:28:53

Analyzed: Jimmy Buffett / Live In Mansfield, MA (2)

DR Peak RMS Duration Track

DR7 -0.10 dB -9.82 dB 5:41 01-Tiki Bar Is Open
DR9 -0.10 dB -11.34 dB 4:11 02-Everybody's Talkin'
DR7 -0.10 dB -9.17 dB 4:55 03-Why Don't We Get Drunk
DR8 -0.10 dB -10.95 dB 5:04 04-Wino And I Know
DR8 -0.10 dB -10.90 dB 4:07 05-It's My Job
DR7 -0.10 dB -8.67 dB 4:26 06-School Boy Heart
DR8 -0.10 dB -10.73 dB 4:47 07-Pirate Looks At Forty
DR8 -0.10 dB -9.36 dB 3:53 08-Changes In Latitudes, Changes In Attitudes
DR7 -0.10 dB -9.16 dB 4:12 09-Apocalypso
DR6 -0.10 dB -8.25 dB 4:11 10-Mexico
DR7 -0.10 dB -8.26 dB 4:34 11-Margaritaville
DR6 -0.10 dB -8.00 dB 3:53 12-Volcano
DR6 -0.10 dB -8.46 dB 7:08 13-Fins
DR5 -0.10 dB -6.55 dB 3:22 14-Sea Cruise
DR8 -0.10 dB -11.16 dB 3:56 15-Lovely Cruise

Number of tracks: 15
Official DR value: DR7

Samplerate: 44100 Hz
Channels: 2
Bits per sample: 16
Bitrate: 884 kbps
Codec: FLAC

http://i66.fastpic.ru/big/2015/0830/1c/ce7e3fcc4797ec7c6515608fed73501c.jpg


DOWNLOAD LINKS:
Buy Premium To Support Me & Get Resumable Support & Max Speed


Links are Interchangeable - No Password - Single Extraction

Jimmy Buffett - Live In Mansfield, MA (2003) Fast Download


Ad2

 
 
 
Dear visitor, you went to the site as an unregistered user. We encourage you to register or enter the site under your name.
 
   
 
 (Votes #: 0)